<?xml version="1.0" standalone="no"?>
<!DOCTYPE svg PUBLIC "-//W3C//DTD SVG 1.1//EN" "http://www.w3.org/Graphics/SVG/1.1/DTD/svg11.dtd">
<svg xmlns="http://www.w3.org/2000/svg">
<metadata>Generated by Fontastic.me</metadata>
<defs>
<font id="prestashop-official-pack" horiz-adv-x="512">
<font-face font-family="prestashop-official-pack" units-per-em="512" ascent="480" descent="-32"/>
<missing-glyph horiz-adv-x="512" />

<glyph unicode="&#97;" d="M310 191c47-24 97-66 118-116-26-21-30-23-60-49-30 57-66 88-115 101-29-37-76-81-149-101-17 35-21 45-32 71 58 13 80 32 109 87-3 67 15 133 58 159 22-7 59-29 69-33-1-7 4-14 22-18 13-3 45-8 76 20 19-29 34-57 34-57 0 0-59-59-129-41-1-9-1-12-1-23z m8 164c-36 0-66 30-66 66 0 36 30 65 66 65 36 0 66-29 66-65 0-36-30-66-66-66z"/>
<glyph unicode="&#98;" d="M326 26c-39 0-61 26-70 42-10 17-22 20-32 20-9 0-18-2-28-4-9-2-19-4-28-4l-1-1-1 1c-49 9-80 28-93 56-18 42 11 88 12 90l197 227c29 22 55 33 77 33 46 0 61-49 62-75 0-1-1-39-2-83 0-39 12-50 12-50 8-5 13-12 15-21 2-18-12-35-14-37l-2-3-4 0c-5-4-9-31-10-80 0-8 0-14-1-18-1-48-17-66-30-76-22-12-41-17-59-17z m-102 79c20 0 36-9 47-28 8-13 24-34 55-34 15 0 32 5 50 15 8 6 21 21 22 62 0 4 0 10 1 18 1 48 3 88 22 95 3 5 9 14 7 21 0 3-1 6-7 10-3 2-20 17-19 64 1 45 2 82 2 82 0 2-4 59-45 59-18 0-40-10-66-29l-194-224c0 0-25-39-10-73 10-23 37-38 79-46 8 0 16 2 24 4 11 2 21 4 32 4z m152 143c-15-1-28-1-28-1l0 129c0 0-4 34-38 10l-175-206c0 0-12-17 0-20 0 0 12-9 22-5 8 7 45 58 141 69-1-50 1-120 1-120 0 0 26-28 52 0 0 28-1 120-1 131 2-1 9 2 27 4 0 0 14 4-1 9z m-74-1c0 0-40-3-56-4-15-1-4 7-4 7l60 67 0-70z"/>
<glyph unicode="&#99;" d="M26 393l204-67 0-292-203 69m254-70l205 70 0 288-204-64m-26 34l188 61-188 57-193-57"/>
<glyph unicode="&#100;" d="M149 314c2-39-19-72-48-74-29-2-54 28-57 67-3 39 18 73 47 75 29 2 55-28 58-68z m199 163c-28 7-59-18-69-56-9-38 6-75 34-82 28-7 59 18 68 56 13 49-26 80-33 82z m66-128c-30-1-53-29-53-73 1-43 25-63 55-63 30 1 53 21 52 65 0 57-47 71-54 71z m-214 137c-29 0-51-31-51-70 0-39 22-70 51-70 28 0 50 31 50 70 0 39-22 70-50 70z m-7-218c-16-24-35-46-70-76-36-30-51-51-51-81 0-31 17-81 66-81 50 0 73 11 112 11 39 0 66-15 115-15 49 0 70 46 70 77 0 30-9 47-48 82-26 22-47 40-81 87-16 23-35 26-56 26-20 0-41-7-57-30z"/>
<glyph unicode="&#101;" d="M28 153c3-5 6-10 10-14 7-9 16-17 25-24 19-15 42-26 65-33 27-9 55-14 83-16 32-3 65-3 98 1 30 3 60 9 88 20 25 10 48 24 68 42 5 5 10 10 14 16 4 4 7 10 7 16 1 7 0 14-2 21-1 7-3 15-5 22-1 3-2 6-2 8-8 33-19 64-34 94-13 25-29 49-47 70-18 20-38 37-61 50-12 6-25 12-39 16-7 2-14 4-22 5-2 1-4 1-5 1-3 0-5 0-8 0-5 0-9 0-14 0-2 0-4 0-6 0-2 0-4-1-6-1-4-1-8-1-12-2-7-2-14-4-21-7-14-6-28-13-40-22-24-16-45-38-63-61-19-25-34-53-46-82-12-31-20-63-26-96 0-4-1-8-1-13 0-2 0-4 0-7 0-1 0-1 0-2 1-1 1-2 2-2z m30 20c0 2 0 4 1 7 1 4 2 8 3 12 6 15 13 29 22 42 4 7 8 13 12 20 5 7 9 14 14 20 8 10 18 21 31 26 18 5 31-13 42-25 6-7 12-13 20-17 4-2 8-3 12-3 6 1 12 5 16 9 13 10 23 23 32 36 11 13 21 28 33 40 5 6 10 12 17 15 3 1 7 0 10-1 2-1 3-2 4-3 2-2 4-3 5-4 13-10 25-21 36-32 10-10 20-21 28-32 9-10 18-21 25-33 8-14 16-29 24-44 7-13 15-29 7-44 0-1 0-1-1-2-13-22-37-36-60-45-28-11-59-17-89-19-31-2-62-2-93 1-28 3-57 8-83 18-22 9-43 21-58 40-3 4-6 9-9 14 0 1-1 1-1 2 0 1-1 1 0 2z"/>
<glyph unicode="&#102;" d="M279 26l-46 0c-102 0-184 82-184 184l0 230c0 26 20 46 46 46 25 0 46-20 46-46l0-230c0-51 41-92 92-92l46 0c51 0 92 36 92 80 0 46-25 81-46 81l-92 0c-26 0-46 21-46 46 0 26 20 46 46 46l92 0c76 0 138-77 138-173 0-95-82-172-184-172z"/>
<glyph unicode="&#103;" d="M442 359l-116 0 0 28 116 0 0-28z m-193-118c8-11 12-25 12-42 0-17-5-32-13-46-6-8-12-16-20-22-10-7-20-12-33-14-12-3-26-4-40-4l-129 0 0 286 138 0c35 0 60-10 74-30 9-12 13-27 13-44 0-17-4-32-13-42-5-6-12-12-22-16 15-6 26-14 33-26z m-157 45l60 0c13 0 23 3 31 7 7 5 11 14 11 26 0 13-5 22-15 26-9 3-20 5-34 5l-53 0z m108-83c0 15-6 25-18 31-7 3-16 5-29 5l-61 0 0-77 60 0c13 0 22 2 29 5 13 7 19 19 19 36z m285 47c1-9 2-23 1-41l-149 0c1-21 8-35 21-43 8-5 18-8 30-8 12 0 22 3 30 10 4 3 8 8 11 14l55 0c-2-13-9-25-20-38-19-19-45-29-78-29-27 0-51 8-72 25-21 17-31 44-31 82 0 36 9 63 28 82 19 19 43 28 73 28 18 0 34-3 49-9 14-7 26-17 35-31 9-12 14-26 17-42z m-54-5c-1 14-6 25-15 32-8 7-19 11-32 11-13 0-24-4-32-12-7-7-12-18-14-31z"/>
<glyph unicode="&#104;" d="M26 456l0-246 0 0c3-85 105-154 230-154 127 0 230 71 230 158 0 87-103 158-230 158-56 0-107-14-147-36l0 120z m230-137c81 0 147-47 147-105 0-58-66-105-147-105-81 0-147 47-147 105 0 58 66 105 147 105z m-97-105c0 38 43 69 97 69 54 0 97-31 97-69 0-38-43-70-97-70-54 0-97 32-97 70z"/>
<glyph unicode="&#105;" d="M26 80l33 34 0 53 108-108-53 0-34-33z m27 260l0-83c54 0 106-21 145-59 38-38 59-91 59-145l83 0c0 157-130 287-287 287z m0 146l0-82c192 0 350-159 350-351l83 0c0 238-195 433-433 433z"/>
<glyph unicode="&#106;" d="M339 26c81 0 146 65 146 145l1 118-1 6-4 8-6 5c-9 7-52 0-63 10-9 8-10 21-12 40-5 35-8 37-13 49-21 43-76 75-113 79l-102 0c-81 0-146-65-146-145l0-170c0-80 65-145 146-145z m-166 341l81 0c16 0 28-12 28-27 0-16-12-28-28-28l-81 0c-15 0-27 12-27 28 0 15 12 27 27 27z m-27-194c0 15 12 28 27 28l165 0c15 0 28-13 28-28 0-15-13-28-28-28l-165 0c-15 0-27 13-27 28z"/>
<glyph unicode="&#107;" d="M62 127l17 0c1-6 2-24-9-43 0 0 49 3 59 43l321 0c20 0 36 16 36 36l0 228c0 20-16 37-36 37l-388 0c-20 0-36-17-36-37l0-228c0-20 16-36 36-36z m350 125c9 0 17-7 17-17 0-9-8-17-17-17-10 0-17 8-17 17 0 10 7 17 17 17z m-104-52c1-1 1-3 1-4 0-24-20-43-44-43-19 0-36 12-41 30z m-206 52c10 0 17-7 17-17 0-9-7-17-17-17-9 0-17 8-17 17 0 10 8 17 17 17z"/>
<glyph unicode="&#108;" d="M317 285c0-5 3-26-7-43-9-16-39-7-39-7l0 84c0 0 6 11 28 8 22-3 18-37 18-42z m154 201l0-290c0-10-7-21-20-27-29-14-410-143-410-143l84 433c0 0 7 27 44 27 36 0 302 0 302 0z m-111-145c-19 52-84 29-85 12l-4 0 0 86-56-9 0-216c0 0 33-31 87-22 54 8 62 54 62 54 0 0 15 44-4 95z"/>
<glyph unicode="&#109;" d="M484 390c0-41-38-76-91-90l-43-44 0 37c-3 0-7 0-10 0-79 0-144 43-144 97 0 53 65 96 144 96 79 0 144-43 144-96z m-323-93c-76 0-138-61-138-136 0-75 62-135 138-135l63 0c1 0 1 0 2 0l0 72-40 0c0 0-72-6-73 63 1 69 73 63 73 63l40 0 0 72c-1 0-1 1-2 1z"/>
<glyph unicode="&#110;" d="M124 90l-1 0 3 0c1 0 2 0 3 0 2 0 3 0 4 0l231 0 0 0c2 0 3 0 5 0 65 0 117 53 117 118 0 65-52 118-117 118-2 0-5 0-7 0-10 55-58 96-115 96-65 0-118-53-118-118 0-2 1-3 1-5 0 0 0 0-1 0-57 0-103-47-103-105 0-55 43-101 98-104z"/>
<glyph unicode="&#111;" d="M220 185c0-11-10-21-21-21-12 0-21 10-21 21 0 12 9 21 21 21 11 0 21-9 21-21z m233 23c0-61-50-111-111-111-1 0-2 0-3 0-20-42-62-71-112-71-67 0-122 54-122 122 0 54 35 100 83 116 2 83-29 138-65 135-37-3-67-3-64 15 4 19 34-1 37 22 4 24-13 34 12 48 24 12 30-19 28-49 86 22 158-82 180-118 8 1 17 3 26 3 61 0 111-50 111-112z m-237 62c4 1 8 1 11 1 7 0 14-1 21-2 12 19 30 33 51 42-62 97-116 110-147 106 55-42 63-126 64-147z m108-122c0 43-28 79-66 91 0 0 0 0 0 0-7 2-15 4-22 5 0 0 0 0 0 0-3 0-6 0-9 0-53 0-96-43-96-96 0-53 43-96 96-96 36 0 68 20 84 49 0 0 0 0 0 0 3 7 6 13 9 21 0 0 0 0 0 0 2 8 4 17 4 26z m107 60c0 50-40 90-89 90-29 0-55-14-71-35 46-18 79-62 79-115 0-10-1-20-4-29 48 2 85 41 85 89z"/>
<glyph unicode="&#112;" d="M258 256c0 45 30 71 67 71 26 0 48-9 61-33l-30-16c-7 16-20 19-26 19-23 0-31-18-31-41 0-23 10-41 31-41 12 0 22 5 29 20l28-14c-12-22-34-36-60-36-41 0-69 25-69 71z m-64-71c26 0 48 14 60 36l-29 14c-6-15-16-20-28-20-21 0-31 18-31 41 0 23 8 41 31 41 6 0 19-3 26-19l30 16c-13 24-35 33-61 33-37 0-67-26-67-71 0-46 28-71 69-71z m-101-91c-44 44-67 101-67 162 0 61 24 119 68 163 43 44 98 67 162 67 63 0 120-23 164-67 44-44 66-101 66-163 0-63-22-119-65-162-46-44-105-68-165-68-61 0-119 24-163 68z m-26 162c0-49 21-97 57-133 36-36 82-55 132-55 50 0 98 19 135 56 35 35 54 80 54 132 0 51-19 98-55 133-36 36-82 56-134 56-52 0-97-19-132-55-36-37-57-84-57-134z"/>
<glyph unicode="&#113;" d="M256 26c55 0 106 19 145 51l81-29-34 81 0 0c24 37 38 80 38 127 0 127-103 230-230 230-127 0-230-103-230-230 0-127 103-230 230-230z m-127 290l47 11c14 26 41 44 73 44 18 0 35-5 48-15l47 11c11 2 22-6 25-18l31-134c3-12-3-24-14-27l-216-50c-11-3-22 5-25 17l-31 134c-3 12 4 24 15 27z m132-120c32 0 58 26 58 58 0 32-26 58-58 58-32 0-58-26-58-58 0-32 26-58 58-58z m0 95c20 0 37-16 37-37 0-20-17-37-37-37-21 0-37 17-37 37 0 21 16 37 37 37z"/>
<glyph unicode="&#114;" d="M468 346c-17 41-46 76-83 101-19 12-39 22-60 29-22 7-45 10-69 10-32 0-62-6-90-18-41-17-76-46-101-83-12-19-22-39-29-61-7-21-10-44-10-68 0-32 6-62 18-90 17-41 46-76 83-101 19-12 39-22 61-29 21-7 44-10 68-10 32 0 62 6 90 18 41 17 76 46 101 83 12 19 22 39 29 60 7 22 10 45 10 69 0 32-6 62-18 90z m-28-168c-16-35-41-66-73-87-16-11-33-19-52-25-18-6-38-9-59-9l0 0 0 199-199 0c0 0 0 0 0 0 0 28 5 54 15 78 16 35 41 66 73 87 16 11 33 19 52 25 18 6 38 9 59 9l0-199 199 0c0-28-5-54-15-78z"/>
<glyph unicode="&#115;" d="M330 210l-18-16 0 164 81 0-139 128-139-128 80 0 0-40-17 12-101-94 51 0 0-210 92 0 0 210 57 0-67 64 0 79-56 0 100 92 100-92-57 0 0-202-66-59 56 0 0-92 92 0 0 92 51 0z"/>
<glyph unicode="&#116;" d="M287 370l0 45c61-14 105-57 120-123l-45 0c-12 41-39 66-75 78z m-67 0l0 45c-72-14-109-57-123-123l45 0c11 41 42 66 78 78z m-78-140l-45 0c14-76 51-112 123-126l0 45c-36 11-67 46-78 81z m313 29c0-113-91-204-203-204-113 0-204 91-204 204 0 113 91 205 204 205 112 0 203-92 203-205z m-20 0c0 102-82 184-183 184-102 0-184-82-184-184 0-101 82-184 184-184 101 0 183 83 183 184z m-183-93c-52 0-93 42-93 93 0 52 41 93 93 94 51-1 92-42 93-94-1-51-42-93-93-93z m72 93c0 40-32 73-72 73-40 0-73-33-73-73 0-40 33-72 73-72 40 0 72 32 72 72z m-37-110l0-45c61 14 105 50 120 126l-45 0c-12-35-39-70-75-81z m175-9c-13 0-23-10-23-23 0-12 10-22 23-22 12 0 22 10 22 22 0 13-10 23-22 23z m-55-58c-16 0-29-13-29-29 0-16 13-29 29-29 16 0 29 13 29 29 0 16-13 29-29 29z m48 132c-8 0-14-6-14-14 0-7 6-13 14-13 7 0 13 6 13 13 0 8-6 14-13 14z m-400-154c-8 0-14-6-14-14 0-8 6-15 14-15 8 0 15 7 15 15 0 8-7 14-15 14z m-4 77c-8 0-14-6-14-14 0-8 6-14 14-14 7 0 14 6 14 14 0 8-7 14-14 14z m45-35c-10 0-19-9-19-19 0-10 9-19 19-19 10 0 19 9 19 19 0 10-9 19-19 19z m366 282c-5 0-10-4-10-10 0-5 5-9 10-9 5 0 10 4 10 9 0 6-5 10-10 10z m-422 41c-9 0-16-7-16-17 0-9 7-16 16-16 9 0 16 7 16 16 0 10-7 17-16 17z m37 60c-11 0-20-9-20-21 0-11 9-20 20-20 12 0 21 9 21 20 0 12-9 21-21 21z m-32-127c-5 0-10-5-10-11 0-5 5-10 10-10 6 0 11 5 11 10 0 6-5 11-11 11z"/>
<glyph unicode="&#117;" d="M353 158c-3 0-4-1-6-4-4-5-12-14-24-27-21-20-35-31-45-31l-2 0c-6 2-8 8-7 13 0 8 2 14 4 21 15 47 38 91 57 137 11 24 23 47 32 72 3 9 6 19 6 29 0 15-10 25-23 28l-2 0c-3 0-2-3-4-14-1-7-4-15-6-22-11-34-28-65-43-96l-5-9 0 4c-3 17-22 28-39 28-25 0-45-15-63-32-22-22-39-52-48-79-16-51-21-116 37-117 16 0 34 11 52 34l3 3c0 0 0-2 0-3 0-16 9-34 27-34 20 0 43 18 77 57 10 11 18 21 23 30 2 3 3 5 3 7 0 3-2 5-4 5z m-122-21c-9-15-21-29-30-37-6-4-11-6-15-6-11 0-18 11-17 28 1 41 20 84 48 117 9 10 18 22 32 22 12 0 18-8 18-21-1-37-17-72-36-103z m-18 272l25 7c4 1 8 5 9 9l6 25c1 4 3 4 4 0l6-25c1-4 5-8 9-9l25-7c4-1 4-2 0-3l-25-7c-4-1-8-5-9-8l-6-26c-1-4-3-4-4 0l-6 26c-1 3-5 7-9 8l-25 7c-4 1-4 2 0 3z m-74-183l-15 61c-3 10-13 20-23 23l-68 18c-10 2-10 6 0 9l68 18c10 2 20 13 23 23l17 68c3 10 7 10 10 0l18-68c2-10 12-21 22-23l68-18c10-3 10-7 0-9l-68-18c-10-3-20-13-22-23l-9-31c-7-9-14-19-21-30z m303-18l40-11c6-1 6-4 0-5l-40-11c-6-1-12-7-14-13l-10-41c-2-5-4-5-6 0l-10 41c-2 6-8 12-14 13l-40 11c-6 1-6 4 0 5l40 11c6 2 12 8 14 14l10 40c2 6 4 6 6 0l10-40c2-6 8-12 14-14z"/>
<glyph unicode="&#118;" d="M181 339c-1 0-2 0-4 0l-22 45-65-8 26-55c-138-57-77-193-77-193l212 61-58 119c104 30 191-32 191-32l-72-19-20 39c-20 3-42 4-66 0l49-100 211 62c0 0-76 121-305 81z m-85-141c0 0-20 46 39 84l32-65z"/>
<glyph unicode="&#119;" d="M108 420l0-82-82 0 0-164 128 0 0 246z m-36-205l0 82 36 0 0-82z m92 123l46 0 0-164-46 0z m0 82l46 0 0-46-46 0z m189-82l-123 0 0-164 77 0 0-36-77 0 0-46 123 0z m-77-123l0 82 31 0 0-82z m210 123l-122 0 0-164 81 0 0-36-81 0 0-46 122 0z m-41-123l-35 0 0 82 35 0z"/>
<glyph unicode="&#120;" d="M486 371l-32 0 0 0-27 0 0 90-172 0 0-89-59 0 0-116-140 0 0 116-30 0 0-117 30 0 0-31 54 0 0-54-23 0 0-32 77 0 0-55-77 0 0 55-31 0 0-87 139 0 0 87-31 0 0 32-23 0 0 54 87 0 0-172 31 0 0 0 201 0 0 179 26 0z m-91 59l0-114-109 0 0 114z m-36-347l0 87-28 0 0-87-71 0 0 173-33 0 0 83 28 0 0-55 172 0 0 55 27 0 0-84-25 0 0-172z m-195 289l0 30 32 0 0-30z m0 30l-77 0 0 32 77 0z m-77-30l-31 0 0 30 31 0z"/>
<glyph unicode="&#121;" d="M254 311c58 1 89 31 118 60l0-345-57 0c-1 14-1 28-1 42l0 97c0 36 1 72 1 108-8-2-18-6-28-9-31-8-72-4-95 10 0-17 0-34 0-51l0-180c0-6 0-11 0-17l-58 0 0 345c29-31 62-61 120-60z m91 100c20 0 37 17 37 38 0 21-17 38-37 38-21 0-37-17-37-38 0-21 16-38 37-38z m-182 0c21 0 37 17 37 38 0 21-16 38-37 38-20 0-37-17-37-38 0-21 17-38 37-38z"/>
<glyph unicode="&#122;" d="M256 486c-127 0-230-103-230-230 0-127 103-230 230-230 127 0 230 103 230 230 0 127-103 230-230 230z m141-119c23-29 37-64 38-103-26 6-50 9-73 9l0 0 0 0c-19 0-36-2-52-5-4 10-8 19-12 28 36 16 71 39 99 71z m-141 69c42 0 81-15 112-40-23-28-55-48-88-63-24 46-47 78-62 98 12 3 25 5 38 5z m-79-19c12-15 37-47 64-98-55-16-109-20-142-20-1 0-2 0-3 0l0 0c-6 0-10 0-14 1 12 51 48 94 95 117z m-101-161c0 1 0 2 0 3 5-1 12-1 20-1l0 0c36 0 99 3 163 24 4-8 7-16 11-24-43-14-77-37-102-60-24-22-40-43-49-58-27 32-43 72-43 116z m180-180c-40 0-77 13-107 36 7 10 20 30 42 51 22 21 53 43 93 57 14-39 26-83 36-132-20-8-42-12-64-12z m102 32c-9 45-21 85-33 121 11 2 23 3 36 3l1 0c21 0 45-3 70-9-8-47-36-88-74-115z"/>
<glyph unicode="&#65;" d="M399 303l-137 84 87 72 137-85z m-51-159l132 78-80 67-129-78z m-107 67l-129 78-80-67 132-78z m-123-56l0-25 132-81 0 154-87-72z m276 0l-45-24-87 72 0-154 132 81z m-144 232l-86 72-138-85 87-71z"/>
<glyph unicode="&#66;" d="M357 401c-24 14-46 20-68 35-14 9-33 31-49 50-4-30-13-43-24-52-22-17-37-23-56-33-17-9-106-62-106-177 0-114 96-198 204-198 107 0 200 77 200 195 0 118-87 171-101 180z m1-331c-2-2-22-16-46-18-24-2-57-4-76 14-4 3-3 7 0 9 2 2 4 3 6 3 3 0 2 0 4-1 9-7 22-12 51-12 28 0 48 8 57 14 4 3 6 1 6-1 1-2 2-5-2-8z m-77 38c5 4 13 11 21 14 7 4 11 3 19 3 7 0 14 0 20-4 5-4 8-11 10-16 2-4 0-7-4-9-3-2-3-1-6 5-4 6-6 12-22 12-15 0-20-6-28-12-7-6-10-8-13-5-2 4-2 7 3 12z m161 84c0-13-4-38-15-54-11-15-17-21-30-20-16 1-48 51-69 52-25 1-81-54-126-54-26 0-34 4-43 10-14 9-20 23-20 43 1 35 33 67 74 67 52 1 88-51 115-51 22 1 65 44 86 44 22 0 28-23 28-37z"/>
<glyph unicode="&#67;" d="M450 374c-17 0-31-11-35-27l-160 53c0 11-9 20-20 20-11 0-21-9-21-20 0-6 3-11 6-14l-169-194c-2 1-4 1-6 1-11 0-19-8-19-19 0-10 8-19 19-19 7 0 13 4 17 11l153-37c0-2-1-5-1-7 0-19 16-34 34-34 19 0 34 15 34 34 0 3 0 7-1 10l117 48c3-3 8-5 13-5 10 0 18 8 18 18 0 6-3 12-7 15l19 94c3 0 6-1 9-1 20 0 36 17 36 37 0 20-16 36-36 36z m-203 9l72-88-73-30-5 115c2 1 4 2 6 3z m-12-4l4-117-33-13c-1 3-4 5-6 7l28 124c2-1 5-1 7-1z m-27-140c0 1 0 3 0 4l32 13 4-100c-3-1-6-1-9-2l-33 70c4 4 6 9 6 15z m61-90c-5 4-12 7-19 7l-4 102 77 32 35-43z m59 143l88 35c1-4 3-7 5-11l-60-65z m86 41l-90-36-73 89c2 3 3 6 4 9l159-53c0-1 0-3 0-4 0-2 0-3 0-5z m-190 49c0 0 0 0 0 0l-28-124c-3 1-5 2-8 2-11 0-21-9-21-21 0-2 1-4 1-5l-111-45c0 0-1 1-2 1z m-161-212c0 2 1 3 1 4 0 4-1 7-3 9l110 45c3-6 10-9 17-9 4 0 7 1 10 2l33-70c-7-4-12-10-15-17z m216-34c-2 4-4 7-6 10l88 97 34-41c-1-3-2-6-2-9 0-3 1-6 2-9z m139 75c-2 0-5 1-7 1-5 0-10-2-13-6l-34 41 60 66c4-4 8-7 13-9z"/>
<glyph unicode="&#68;" d="M439 356l-36-77-33 77-51 0 9-17c-5 0-10 1-16 1-14 0-25-3-33-9-9-5-14-16-14-31l35 0c0 10 1 20 14 20 13 0 14-8 14-19l0-10c-20 0-40 0-52-10-6 5-13 8-23 8-13 0-22-3-29-14l-1 0 0 67-35 0 0-61c-5 3-12 5-19 6-13 3-29 5-49 5-85 0-94-27-94-58 0-35 10-60 94-60 19 0 36 2 49 5 7 1 14 4 19 6l0-26 34 0 0 14 0 0c7-13 16-17 30-17 30 0 35 27 36 50 2 0 5 0 8 0 16 0 26 6 33 19l1 0 2-17 33 0c-1 8-2 16-2 24l0 34 15-29 0-64 46 0 0 64 62 119z m-319-84c31 0 30-15 30-26l-59 0c0 9-1 26 29 26z m49-57l-21 0c0-10-5-21-28-21-28 0-29 20-29 34l97 0 0-13-19 0z m84 9c0-32-2-46-15-46-13 0-15 14-15 46 0 26 0 43 15 43 15 0 15-17 15-43z m58 4c-12 0-14 11-14 20 0 23 14 21 31 23 0-14 4-43-17-43z"/>
<glyph unicode="&#69;" d="M444 328c-7-25-33-38-33-38-61 153-139 196-139 196-4-49-63-87-63-87l-41 21c6-35-15-67-15-67-85-56-53-171-53-171l-36 17c27-196 193-172 193-172 236 1 187 301 187 301z m-194-265c-141 1-112 181-112 181 4-15 20-22 20-22 36 92 84 117 84 117 2-29 37-52 37-52l25 13c-4-21 9-41 9-41 51-33 31-102 31-102l22 10c-16-118-116-104-116-104z"/>
<glyph unicode="&#70;" d="M121 29c39 2 86 0 132 0 47 0 96 3 134 0 16-1 30-10 42-2 10 13 3 30 5 47 4 32 34 71-9 79-19-17-6-33-17-54-12-25-58-34-101-37-37-3-102-7-115 19-12 21-5 54-5 81 0 31-4 61 5 84 47-3 108 16 141-4 22-14 9-41 35-49 18 4 8 27 7 49 0 13 0 33 0 49 1 21 10 46-14 46-18-14-4-38-23-51-7-4-20-6-29-7-35-4-90-1-120 5-4 43-4 101 0 144 16 16 53 17 78 17 44 0 112-4 125-26 7-12 1-37 14-40 25-5 13 40 14 61 1 16 8 26 5 37-9 12-21 6-29 5-80-10-201-5-287-5-10 0-28 5-35-7-5-27 32-15 44-30 5-5 11-26 12-40 4-37 0-94 0-149 0-58 5-116 0-152-1-12-9-32-12-35-16-16-58 2-54-32 15-11 37-4 57-3z"/>
<glyph unicode="&#71;" d="M152 387l-74 0 93 94 0-76z m265 37c-8 14-50 30-71 30-22 0-56 0-56 0 0 0-18 32-60 32-42 0-39-18-39-34l0-65-19-20-88 0c0 0-25-17-25-52 0-36 11-159 85-171 87-13 102 27 102 32 0 21 1 52 1 52 0 0 25-49 64-49 39 0 61-22 61-45 0-23 0-42 0-42 0 0-1-27-24-27-23 0-49 0-49 0 0 0-15 13-15 30 0 17 7 22 16 22 10 0 17-1 17-1l0 36c0 0-73 0-73-56 0-56 38-70 69-70 30 0 50 0 50 0 0 0 90 11 90 190 0 178-28 195-36 208z m-90-159c0 0 5 29 22 29 17 0 40-39 40-39 0 0-53 10-62 10z"/>
<glyph unicode="&#72;" d="M195 397c0-11 0-63 0-63l-47 0 0-78 47 0 0-230 95 0 0 230 65 0c0 0 6 37 8 78-8 0-72 0-72 0 0 0 0 45 0 53 0 8 10 19 21 19 10 0 31 0 52 0 0 10 0 47 0 80-27 0-58 0-71 0-100 0-98-77-98-89z"/>
<glyph unicode="&#73;" d="M486 410c0 40-36 76-76 76l-308 0c-40 0-76-36-76-76l0-308c0-40 36-76 76-76l154 0 0 174-56 0 0 76 56 0 0 30c0 52 39 98 86 98l62 0 0-76-62 0c-6 0-14-9-14-21l0-31 76 0 0-76-76 0 0-174 82 0c40 0 76 36 76 76z"/>
<glyph unicode="&#74;" d="M407 372c-1 6-5 12-7 18-30 71-94 96-146 96-70 0-146-46-157-143l0-19c0-1 1-8 1-12 6-46 42-95 69-141 29-49 59-97 89-145 19 31 37 63 55 94 5 9 11 18 15 26 4 6 10 12 13 17 29 53 76 107 76 160l0 22c0 5-7 25-8 27z m-152-99c-20 0-43 10-54 38-1 5-1 14-1 15l0 13c0 36 30 52 57 52 33 0 58-26 58-59 0-33-27-59-60-59z"/>
<glyph unicode="&#75;" d="M357 192l37 266 92 0-70-266z m20-39c-29 0-52-23-52-51 0-29 23-52 52-52 29 0 52 23 52 52 0 28-23 51-52 51z m-243 27l158 0 16 64-161 0 27 139 174 0 16 77-262 0-76-403 84 0z"/>
<glyph unicode="&#76;" d="M404 184c1 6 2 13 2 20 1 87-47 121-96 149 14-75-33-122-91-106 85 139-38 139-1 239-58-41-116-156-116-240 1-22 3-43 7-62-42-17-68-40-68-67 0-50 97-91 215-91 118 0 215 41 215 91 0 26-26 50-67 67z m-230 110c-16-73 27-127 68-127 47 0 74 43 88 100 25-19 37-45 39-72 0 0 0 0 0 0 2-30-11-61-37-83 0 0 0 0 0-1-6-4-12-8-19-12 0 0-1-1-2-1-2-1-5-3-8-4-1 0-2-1-2-1-8-3-15-5-23-7-2 0-3 0-4-1-3 0-6-1-9-1-2 0-3 0-4-1-5 0-9 0-14 0-3 0-6 0-9 0-1 0-2 0-3 0-3 0-5 1-8 1 0 0-1 0-1 0-4 1-7 2-10 2 0 1-1 1-1 1-3 1-6 2-9 3 0 0 0 0-1 0-38 15-66 53-64 105 0 0-1-1-1-1 1 29 11 63 34 100z"/>
<glyph unicode="&#77;" d="M486 256c0-57-46-102-103-102-57 0-103 45-103 102 0 57 46 102 103 102 57 0 103-45 103-102z m-357 102c-57 0-103-45-103-102 0-57 46-102 103-102 57 0 103 45 103 102 0 57-46 102-103 102z"/>
<glyph unicode="&#78;" d="M319 350c-3-3-10-2-16-2-2-5-2-12-5-16 10-8 31-7 40-16 19 7 4 22 16 34 19 3 23-9 28-20-4-4-15-2-23-2-5-4-6-10-10-14 5-10 16-12 19-23 24 6 49 12 74 16 7 7 6 22 17 25 18-3 24-19 25-39-9-17-34-10-42 5-24-4-47-9-69-14-2-5 1-21-3-30 16-10 22 8 35 7 8-8 8-39-9-36-10 0-11 10-12 20-7-1-8 3-14 2-10-6-16-17-28-22 2-21 24-7 35-16-1-17-13-23-30-23-1 13 4 24-12 32-15-3-22-13-37-16 0-7 3-11 5-16 4-3 19 3 23-5 0-18-24-30-37-20-1 10 6 12 9 18-4 5-7 12-9 18-15-5-28-13-47-14 0-5-4-6-2-13-1-9 11-5 12-12 4-21-30-24-35-9-1 14 17 11 11 30-11 4-31 1-42 7-6-3-6-11-11-14 1-7 8-7 7-16-15-6-38-1-35 18 9 10 24 2 30 16-9 11-19 21-23 37-35-8-63-22-96-32-3-8-3-18-9-23-10-2-10-1-21 0-9 14-4 44 14 46 10 2 7-9 14-9 33 7 62 19 96 27-8 41 52 70-14 64-7 20 6 36 18 34 21-2 5-28 21-36 15 8 25 21 44 25 2 7-1 11-2 16-1 5-14 0-16 5 0 5 0 10 0 16 7 7 27 5 32-3 2-10-4-12-11-13 0-8 5-11 7-16 14 6 37 4 58 4 3 3 4 8 4 14 2 8-12 1-9 11 3 25 35 11 35-7z m19-103c10 7 6 28 7 44-29 23-48-45-7-44z m-103-25c22-3 52 21 49 41-2 21-42 39-65 28-30-14-7-66 16-69z"/>
<glyph unicode="&#79;" d="M216 451c30 23 70 35 112 35 31 0 61-6 87-19l0 0 0 0c6-3 10-10 10-17 0-2 0-4 0-5-2-6-6-10-11-12-2-1-5-1-7-1-3 0-6 0-8 2-17 8-35 13-54 15-15 3-31 4-47 4-37 0-73-8-104-23 7 7 14 14 22 21z m232-297c0 6-3 11-8 15-3 2-7 3-10 3-6 0-12-2-15-7-10-14-20-24-31-31-13-9-34-22-34-23l0 0c-5-3-8-9-8-15l0-24-57 24c-2 1-5 1-7 1l-1 0c-4 0-9 0-13 0-63 0-121 26-150 68l-1 0 1 0c-1 0-2 1-3 2l0 0 0 0c-12 18-18 37-18 56 0 35 20 67 50 89 31 23 74 37 120 37 34 0 67-8 95-22l1 0 0 0c14-7 25-17 33-27 8-10 12-22 12-34 0-20-11-38-30-52-22-16-51-24-82-24-8 0-16 0-23 1l-1 0 0 0c-21 4-42 11-60 21l0 0 0 0c-35 21-55 51-55 84 0 2 0 5 0 7-14-10-25-22-33-35 8-35 33-67 70-88l1-1 0 0c22-12 46-20 72-24l1 0 0 0c9-1 18-2 28-2 39 0 76 11 103 31 30 22 46 51 46 82 0 38-24 73-66 94l-1 1 0 0c-33 16-71 25-111 25-54 0-106-17-144-46-41-31-63-73-63-117 0-28 9-55 26-79 1-1 2-2 3-3l0 0 0 0c37-50 105-81 179-81 3 0 7 0 10 0l1 0 78-33c2-1 5-1 7-1 4 0 7 1 10 3 6 3 9 9 9 15l0 42 1 1c7 5 17 11 25 16 15 10 28 24 40 40 2 4 3 7 3 11z m-150 80l0-3 0 3 0 0c9-1 17-2 25-2 22 0 43 4 62 12 4 7 7 15 7 22 0 7-2 13-5 20-18-11-40-17-64-17-6 0-13 1-19 2-44 6-78 29-93 58-12-3-23-7-34-12 18-42 64-74 121-83z m158 99c0 33-22 65-58 83l-2 1 0 0c-29 14-63 22-98 22-48 0-93-14-127-40-11-9-21-19-29-29 35 18 76 28 119 29 12 2 24 4 37 4 30 0 58-7 83-19l1-1 0 0c16-9 28-21 33-34 16-14 27-30 34-48 4 10 7 21 7 32z"/>
<glyph unicode="&#80;" d="M64 26l162 0 0 95-49 34 12 17 37-25 0 74 50 0 0-47 36 19 11-19-47-25 0-26 71 35 9-19-80-40 0-73 100 0 0 0 72 0-192 460z"/>
<glyph unicode="&#81;" d="M486 453l-172-176-62 60-26-25c-14 39-52 68-97 68-57 0-103-45-103-100 0-55 45-99 101-100l125-121 143 139-14 14 105 82z m-15-150l-231-182-87 77c-8-2-16-4-25-4-49 0-88 39-88 86 0 47 39 85 88 85 48 0 88-38 88-85 0-13-3-25-8-36l35-57 228 234z"/>
<glyph unicode="&#82;" d="M486 399l-68 0c-13 0-28-18-28-42l0-40 81 0 0-81-81 0 0-203-81 0 0 203-122 0 0-203-80 0 0 203-81 0 0 81 81 0 0 40c0 67 48 122 109 122l68 0 0-80-68 0c-14 0-29-18-29-42l0-40 122 0 0 40c0 67 49 122 109 122l68 0z"/>
<glyph unicode="&#83;" d="M214 407c32-27 44-75 32-115-14-36-74-36-87 1-13 37-7 84 20 114 10 9 26 11 35 0z m83 35c-32-15-34-59-33-90 3-29 11-73 47-74 42 17 41 71 35 108-3 25-18 61-49 56z m162-53c-18 4-44 5-52-15-27-54-25-119-62-168-31-37-79-62-128-54-26 4-50 19-64 41-27 46-28 105-61 147-79 34-67-64-64-81 0 0 0-1 0-2 0 0 0 0 0 0 4-24 5-48 17-70 45-93 161-137 258-110 106 30 180 139 183 249 0 23-4 52-27 63z"/>
<glyph unicode="&#84;" d="M49 463l0-276 23-23 253 0 0-69-253 0 0-46 23-23 276 0 23 23 0 115 69 138 0 138-69-158 0 181-23 23-299 0z m69-230l0 184 207 0 0-184z"/>
<glyph unicode="&#85;" d="M381 485c-41-26-83-4-114 0-135 18-178-140-80-203-25-13-23-80 4-90-64-7-76-97-42-134 42-45 171-42 208 0 26 29 30 89 7 117-21 25-126 29-125 69 2 28 40 23 63 34 43 21 69 83 52 131 9 2 18 5 27 7z m-166-145c-50 111 117 103 66 0-17-12-49-13-66 0z m94-217c4-49-96-51-108-17-9 29 3 38 32 45 32 8 73 6 76-28z"/>
<glyph unicode="&#86;" d="M362 435c6-14 10-36 4-53 24-20 32-69 21-109 33-3 73 1 99-9-24 3-57 9-88 7-6-1-15 0-15-8 37-3 73-6 102-16-29 5-65 13-102 14-15-30-45-45-87-48 4-10 13-14 15-29 3-24-5-59 3-74 4-8 10-8 14-15-10-12-35 2-38 15-5 22 7 56-6 70 1-23-6-57 1-79 2-8 10-11 8-19-48-5-28 62-36 102-7-1-4-11-4-16 0-38 8-91-34-86-1 8 6 11 8 18 8 22-1 54 3 80-16-11 1-53-9-75-5-12-24-17-37-12 1 9 11 8 15 17 6 11 0 29 2 46-29-6-52 1-63 19-5 9-6 18-13 26-5 7-15 8-18 18 36 9 38-37 71-39 10 0 15 3 24 6 3 11 8 20 16 26-40 6-74 18-89 49-37-2-71-7-102-15 28 11 63 14 101 16-3 13-22 9-34 9-22-1-51-4-68-7 25 9 62 8 96 8-10 33-7 86 17 106-7 17-5 44 4 57 26-1 42-12 58-23 20 5 42 8 69 7 12-1 24-6 33-5 9 1 18 10 26 14 11 5 21 7 33 7z"/>
<glyph unicode="&#87;" d="M252 161c50 1 86 26 107 75l1 0 0-75c0-6-1-14-1-26-2-13-6-26-12-40-7-13-17-25-32-34-14-10-34-15-60-16-25 0-46 7-63 20-17 12-27 33-30 61l-22 0c2-37 14-63 35-79 21-15 48-23 80-23 31 0 56 6 74 18 17 11 30 26 37 43 8 17 12 33 14 48 1 16 2 27 2 33l0 312-22 0 0-69-1 0c-9 25-23 44-42 57-19 13-41 19-65 19-41-1-72-17-93-48-22-30-33-68-33-113 0-47 10-85 31-115 21-31 53-47 95-48z m-78 260c17 28 43 42 78 43 37-1 64-15 81-42 18-27 26-60 26-98 0-39-8-71-26-98-17-28-44-43-81-44-34 1-60 15-78 43-18 27-27 60-27 99 0 36 9 68 27 97z"/>
<glyph unicode="&#88;" d="M407 486l-125 0c-32 0-73-4-108-33-26-22-39-53-39-81 0-47 37-95 101-95 6 0 12 1 19 1-3-7-6-13-6-23 0-19 10-30 18-41-27-2-78-5-115-28-36-21-47-52-47-74 0-45 42-86 130-86 104 0 159 57 159 114 0 42-24 62-50 85l-22 17c-7 5-16 12-16 26 0 13 9 21 17 29 25 20 51 41 51 86 0 46-29 70-43 82l37 0z m-53-370c0-37-31-65-89-65-65 0-107 31-107 74 0 43 39 57 52 62 26 9 58 10 64 10 6 0 9 0 14-1 46-32 66-49 66-80z m-49 195c-9-10-26-17-41-17-52 0-75 67-75 108 0 15 3 32 13 45 10 12 26 19 42 19 50 0 77-67 77-111 0-11-2-30-16-44z"/>
<glyph unicode="&#89;" d="M486 274c0-39-15-75-41-105l-138 139 114 96c40-34 65-79 65-130z m-294-39l215 179c-41 28-93 45-151 45-84 0-157-36-197-89z m-104-87l91 76-130 131c-15-24-23-52-23-81 0-48 23-93 62-126z m345 8l-139 141-101-84-2-2 0-1-30-26-1 0-42-33c0 0 0 0 0 0l-16-14c3-2 6-4 10-6-8-22-20-46-37-71 41-17 87 10 119 37 20-5 41-7 62-7 71 0 135 26 177 66z"/>
<glyph unicode="&#90;" d="M484 301c0 101-103 183-230 183-127 0-230-82-230-183 0-88 78-162 181-180-2-29-8-63-21-97 51 13 95 58 126 99 100 20 174 92 174 178z m-131-113c-3-1-6-2-10-2-3 0-6 0-10 0-3 0-5 0-8 0 36 26 59 68 59 115 0 51-28 96-70 121 6 2 13 2 19 2 62 0 111-53 111-119 0-59-39-108-91-117z"/>
<glyph unicode="&#48;" d="M304 279c-3-29 5-67-4-89-132-16-114 267 0 244-20-91 86-86 89-23 2 47-52 69-82 73-89 13-200-38-213-155-12-116 33-152 120-194-44-127 122-134 179-69 42 48 17 135 27 213-39 0-78 0-116 0z m-35-190c-36 21-2 67 27 70 4 0 7-1 8-4 3-37-7-61-35-66z"/>
<glyph unicode="&#49;" d="M149 485c3 1 6 1 10 1 14-1 22-13 23-32 2-32-10-67-16-89 53-11 96-38 122-86 13-21 23-46 25-78 0-4-2-11-1-16 1-4 8-10 12-14 11-12 28-28 42-32 26-10 62 6 87 11 17 4 28 2 32-11 1-2 1-5 1-8-4-18-22-29-40-38-51-27-136-40-205-39-13-12-30-19-51-24-11-1-21-2-32-4-25-1-56-2-70 12-7 7-12 20-9 32 4 19 27 30 50 36-1 6-6 12-8 18-10 27-7 60 2 80-6 2-13 3-18 5-3-6-2-12-5-16-13-17-46-10-44 18 1 17 25 30 38 38 8 5 18 10 26 15 8 5 18 12 20 18 2 8-1 20-4 25-3 0-5-5-7-7-7-8-15-15-24-23-11-9-24-20-38-24-19-6-34 2-40 19-1 4-1 7-1 10 7 39 39 59 74 76-14 16-41 40-45 74-1 15 5 29 16 36 20 11 36-9 48-18 6 15 14 28 30 35z m102-177c-21 22-51 38-86 44-6 2-12 2-13 5-1 3 1 9 3 14 7 25 13 43 15 71 1 16-3 39-19 31-13-7-19-23-23-35 12-11 35-66 0-65-25 0-19 48-14 64-5 5-8 10-15 15-4 3-11 9-21 6-6-2-10-11-11-15-1-6 1-13 2-18 5-22 24-44 37-55 4-4 15-7 15-14-1-5-15-8-22-11-10-5-16-10-21-13-14-10-27-20-34-32-3-5-8-14-6-22 2-11 11-17 24-14 13 3 28 15 41 27 6 6 10 9 17 17 5 5 11 17 17 16 6 0 13-17 14-23 4-18-2-30-9-37-10-9-26-15-41-25-10-6-34-19-33-31 0-14 19-15 23-6 2 7-4 17 1 20 5 4 14-1 18-2 8-2 14-3 18-4 9 11 18 31 36 31 16 0 26-27 14-38-11-10-28-6-42-6-14-22-12-72 6-94 16 2 31 1 45 0-30 42-12 105 38 112 45 6 72-24 76-27-4 52-23 87-50 114z m-121 77c7 0 5 11 3 19-2 7-6 13-9 18 0 1 0 1 0 1-3-8-5-39 6-38z m12-171c10 0 23-1 29 6 1 5-2 11-5 14-12 0-19-11-24-20z m85-5c-42-7-56-61-30-94 5-6 19-14 19-19-1-7-7-5-13-3-15 4-34 6-50 4 17-20 49-30 83-31 11 9 16 30 6 47-3 7-9 10-7 15 2 5 10 3 16 3 28 3 42 26 47 48-19 17-37 36-71 30z m26-90c10-15 5-39 0-50 0 0-2-4-1-3 72 2 162 14 208 49 6 4 16 13 14 21-3 10-30-1-39-4-13-3-31-7-46-8-40-3-57 24-79 44-1 2-2 3-2 1-8-25-23-45-55-50z m-109-31c-5 4-5 9-11 7-19-6-43-14-43-33 0-12 10-19 17-21 14-5 36-4 57-2 22 2 44 7 57 16-31 4-58 13-77 33z"/>
<glyph unicode="&#50;" d="M256 486c-127 0-230-103-230-230 0-127 103-230 230-230 127 0 230 103 230 230 0 127-103 230-230 230z m124-301c-18 0-35 36-35 36 0 0-26 88-142 106 10-160-49-140-71-142-22-1-35 31-35 71 0 88 71 159 159 159 88 0 157-71 159-159 1-18-17-71-35-71z"/>
<glyph unicode="&#51;" d="M26 486l0-460 460 0 0 460z m250-265l0-113-40 0 0 113-101 199 47 0 74-150 76 150 45 0z"/>
<glyph unicode="&#52;" d="M470 284l4 81-155 0-23-126 1 0c-2-4-3-8-4-13l0-20 15 0 0-29c16-17 43-30 80-30 58 0 98 37 98 90 0 16-5 33-16 47z m-81-117c-47 0-76 25-76 49 0 16 11 30 31 30 13 0 20-9 20-19 0-6-2-8-2-13 0-6 3-11 14-11 15 0 22 16 22 32 0 14-5 25-17 25-9 0-14-4-15-9l-44 5 16 89 117 0-2-45-78 0-4-23c5 8 21 14 41 14 37 0 56-28 56-54 0-39-28-70-79-70z m-76 59l0 126-85 0 0-38-28 0 0-75 15 0 0-13-15 0 0-74 128 0 0 74z m-65 106l45 0 0-29-45 0z m60-160l-88 0 0 34 15 0 0 53-15 0 0 34 73 0 0-87 15 0z m-88 0l0 34 15 0 0 20-16 0 0 30c0 34-24 60-55 60-9 0-18-2-25-5l0 54-113 0 0-75 15 0 0-64-15 0 0-74 209 0 0 20-15 0z m-5 0l-80 0 0 34 6 0 0 35c0 10 0 20-6 20-6 0-12-8-16-23l0-32 6 0 0-34-79 0 0 34 15 0 0 104-15 0 0 35 73 0 0-78c8 15 24 29 45 29 20 0 35-17 35-40l0-50 16 0z"/>
<glyph unicode="&#53;" d="M246 445c-127 0-231-77-231-173 0-51 30-97 78-129-5-24-13-53-29-76 21 0 72 23 108 42 23-6 48-9 74-9 127 0 230 77 230 172 0 96-103 173-230 173z m110-175c-1-3-2-7-4-11-5-7-10-14-17-20-32-34-89-72-89-72 0 0-57 38-90 72-6 6-12 13-16 20-3 4-4 8-5 11-2 7-3 14-3 22 0 38 31 69 69 69 26 0 45-27 45-46 0 19 9 46 44 46 39 0 70-31 70-69 0-8-2-15-4-22z"/>
<glyph unicode="&#54;" d="M374 486c10 0 21 0 32 0 11 1 27-31 23-44-3-9-27-13-32-20-9-11-5-47-5-70 0-63 0-124 0-191 0-11-2-32 1-35 4-4 16-2 21-3 11-4 25-25 16-40-3-4-14-7-22-10-18-9-50-19-76-17-15 1-39 23-36 39 1 7 7 11 15 14 5 2 17 1 22 6 6 5 1 30 1 43 0 8 0 14 0 24 0 8 0 20-1 23-4 5-38 1-46 0-34-5-53-8-82-17-8-3-29-6-34-15-6-9-1-40 0-54 0-6-2-19 1-23 4-6 19-3 23-5 9-3 22-17 20-30-2-24-60-33-88-35-11-1-15-1-22 1-13 3-29 20-27 33 1 10 15 16 25 19 3 1 9 2 11 4 4 4 1 24 0 35-4 34-5 76-6 111 0 42-3 71-3 114 0 12 2 32-1 36-4 5-15 4-22 7-11 5-17 12-23 27 0 3 0 5 0 8 10 20 35 24 62 29 39 7 76 15 87-18 2-6 4-17 0-23-7-11-33-8-38-18-3-3-2-17-2-29 0-36-5-62-2-99 0-5 2-22 6-24 5-3 15 2 20 3 37 8 59 13 99 18 10 1 36 1 41 5 8 7 3 25 2 35-3 27-3 47 0 74 1 10 4 30-1 35-4 4-17 4-21 6-14 6-31 20-25 41 2 5 10 10 16 13 21 11 46 12 71 17z"/>
<glyph unicode="&#55;" d="M477 233l-3 5c-5 8-11 15-18 21-7 4-15 7-22 11 20 9 34 23 41 41 5 14-4 26-4 37l0 2c0 13-18 21-35 26-9 1-20 1-30 1l-22-5 7 17c7 20 5 40-6 59l-2 4c-10 16-25 26-45 31-20 5-38 3-56-7-19-10-36-24-36-44l0-1-3-5-3 5-7 11c-11 17-24 26-41 31-14 3-26 2-39-5-14-8-22-21-25-39-3-19 0-37 10-55l4-7-15 5c-20 5-39 2-57-8-20-9-32-23-39-42-8-18-7-35 2-52 4-7 10-13 15-17 8-7 18-12 30-14l5-1-10-9c-9-7-15-17-18-27-3-12-2-23 5-34 3-6 6-10 12-13 5-5 12-8 19-9 15-3 30-3 47 2l-12-19-3-9c-7-21-5-39 5-58 4-7 10-13 15-19 8-7 18-12 30-15 20-5 40-5 59 5 18 10 30 26 36 45l1 4c12-14 24-23 38-26 13-4 26-3 38 4 11 7 19 18 23 32 3 14 3 28 0 44 7-4 13-7 21-9 21-7 40-6 59 4 17 9 29 25 35 45 6 20 4 38-6 57z m-96 108l8 3c12 6 24 7 35 6 12-2 20-7 24-15l2-8-1-7c-5-11-15-20-31-28-7-3-14-4-22-5l-81-10-2 4-1 2 3 4z m-112 82c3 13 12 23 24 29 12 7 26 8 38 3 14-3 24-10 30-21 3-7 5-14 5-23l-2-14c-2-7-6-14-10-20l-59-71c-6 5-13 8-20 11l-6 73-1 26z m-113-2c0 12 5 19 13 24 4 3 10 3 15 1 12-4 22-12 30-28 3-7 7-13 8-21l13-77-10-3-59 63-3 7c-5 11-9 22-7 34z m-98-138c-5 10-5 20-1 29 5 13 13 23 26 28 12 6 24 8 37 5l18-7 58-42c-5-6-9-13-11-19l-95-12-6 1c-12 2-20 8-26 17z m188-191l-3-7c-4-12-13-21-25-26-12-7-25-8-37-5-13 3-23 11-28 21-4 7-6 15-6 22l3 15c1 7 4 13 10 19l55 65c7-4 15-7 22-8 2-22 9-45 9-70z m-25 130c-9 7-14 18-14 30 0 12 5 22 14 31 7 7 18 11 31 11 12 0 23-4 30-11 9-9 13-19 13-31 0-12-4-23-13-30-8-9-18-13-30-13-13 0-24 4-31 13z m122-114c-1-12-5-20-13-24-5-3-10-3-15-2-13 3-23 13-30 28l-8 22-10 56 11 4 9 5 28-28 17-21 3-6c6-11 9-22 8-34z m114 76c-3-13-11-23-23-28-12-7-23-8-37-3-8 2-13 5-18 10l-69 57 5 9 2 8 74 7 27 0 6 0c10-4 20-9 25-19 7-7 10-17 10-28z"/>
<glyph unicode="&#56;" d="M26 268c-1-113 93-204 210-204 33 0 64 7 92 21l158-47-51 165c7 21 11 43 11 66 0 113-94 205-210 205-116 0-210-92-210-206z m352 1c0-18-3-34-9-49l27-75 0 0 2-6c0 0 0 0 0 0l9-25-33 9-72 22c-20-10-43-15-66-15-79 0-143 62-143 139 0 76 64 139 143 139 79 0 142-62 142-139z"/>
<glyph unicode="&#57;" d="M353 39c-28 2-46 6-54 12-9 7-13 23-13 50l0 310c0 26 4 42 13 49 8 8 26 12 54 13l0 13-205 0 0-13c29-1 47-5 55-13 9-7 13-23 13-49l0-310c0-27-4-43-13-50-8-6-26-10-55-12l0-13 205 0z"/>
<glyph unicode="&#33;" d="M256 486c-127 0-230-103-230-230 0-127 103-230 230-230 127 0 230 103 230 230 0 127-103 230-230 230z m0-414c-102 0-184 82-184 184 0 102 82 184 184 184 102 0 184-82 184-184 0-102-82-184-184-184z m84 122c2-19-13-37-33-40-19-2-36 12-38 31-1 20 14 38 33 40 6 1 12 0 18-2l0 96-93-17 0-120 0 0c0 0 0-1 0-1 2-20-13-37-32-40-20-2-37 12-39 31-1 20 13 38 33 40 6 1 12 0 18-2l0 138 133 23 0 0 0 0 0 0 0 0 0-176 0 0c0 0 0 0 0-1z"/>
<glyph unicode="&#34;" d="M64 73l0 366c0 26 19 47 42 47 22 0 41-21 41-47l0-206 104 112c12 13 22 21 37 21 22 0 36-21 36-42 0-16-8-29-19-41l-66-64 79-120c7-11 10-20 10-31 0-25-18-42-39-42-16 0-26 6-36 21l-73 114-33-34 0-54c0-26-19-47-41-47-23 0-42 21-42 47z m334 56c28 0 50 22 50 50 0 27-22 50-50 50-27 0-50-23-50-50 0-28 23-50 50-50z"/>
<glyph unicode="&#35;" d="M204 167c2-10-8-20-15-22-4 0-6 1-6 3-1 2 1 4 1 6-2 7-33 31-92 76-4-61-4-94-5-98-1-6-7-11-14-12-7-2-11 1-13 8-2 9 2 84 13 222 0 2-1 4-1 4-4 17 4 28 15 30 7 1 17-1 19-8 1-6-5-43-10-109 23 39 57 84 99 137 6 8 11 13 16 14 4 1 7-1 8-6 1-4-1-9-5-12-24-30-57-80-102-148 60-38 89-73 92-85z m242 127c9-45-9-92-34-97-9-3-20 1-25 8-1-56 0-87 2-95 1-4 5-4 5-6 1-4-3-8-7-9-9-2-16 0-17 9-2 6-5 58-1 152-5-7-11-11-17-14-3-43-17-68-40-73-15-4-29 3-34 20-7-15-14-23-25-25-14-3-25 5-29 21-3 16-2 38 3 67l-12 1c-5-37-10-56-18-58-3-1-6 1-7 5 0 2 7 24 8 64-5 2-8 4-8 7-2 8 6 21 18 23 5 2 11-1 12-6 0-2 0-6 0-11l14-1c1 4 3 7 6 11 2 1 4 2 5 2 6 2 15-2 16-7 1-4-1-8-5-14-11-32-14-58-10-77 2-7 5-10 8-10 7 2 14 14 21 37 1 14 4 31 10 48 5 14 12 22 20 24 5 1 10 0 13-4 2 1 4 2 6 2 11 2 22-7 27-27 13 7 16 20 20 27 2 40 3 56 12 58 4 1 10-1 11-6 1-5-2-21-3-48 8 20 15 32 23 33 13 3 27-8 32-31z m-116-33c-1 7-5 10-9 9-12-2-28-44-21-73 1-8 5-11 11-10 13 3 26 45 19 74z m96 31c-2 8-5 12-9 11-6-1-23-29-27-81 2-8 9-12 15-10 11 2 16 13 20 34 3 19 3 35 1 46z"/>
<glyph unicode="&#36;" d="M394 119c-48 1-73 24-91 66l-5 11-44 101c-14 35-50 59-91 59-55 0-100-45-100-100 0-55 45-100 100-100 38 0 72 21 88 53l18-41c-25-31-63-50-106-50-76 0-137 62-137 138 0 76 61 138 137 138 57 0 103-31 127-85 2-4 25-59 45-105 12-28 23-47 57-48 34-2 57 19 57 45 0 26-17 32-47 42-54 18-82 36-82 79 0 42 28 69 74 69 30 0 52-13 67-40l-29-15c-12 16-24 22-39 22-22 0-37-15-37-35 0-29 25-33 61-45 47-15 69-33 69-78 0-47-39-81-92-81z"/>
<glyph unicode="&#37;" d="M486 206l0-170-98 0 0 159c0 40-15 67-50 67-28 0-44-18-51-36-3-7-3-15-3-24l0-166-99 0c0 0 1 269 0 297l99 0 0-42c-1 0-1-1-1-1l1 0 0 1c13 20 36 49 89 49 65 0 113-43 113-134z m-404 270c-34 0-56-22-56-51 0-29 21-52 54-52l1 0c34 0 56 23 56 52-1 29-22 51-55 51z m-51-440l99 0 0 297-99 0z"/>
<glyph unicode="&#38;" d="M450 483l-393 0c-19 0-34-14-34-33l0-394c0-19 15-34 34-34l393 0c19 0 34 15 34 34l0 394c0 19-15 33-34 33z m-287-385l-70 0 0 208 70 0z m-35 236l0 0c-24 0-39 16-39 36 0 20 16 36 39 36 24 0 39-16 39-36 0-20-15-36-39-36z m286-236l-70 0 0 111c0 28-10 47-35 47-19 0-31-13-36-25-2-5-2-11-2-17l0-116-70 0c0 0 1 188 0 208l70 0 0-30c9 14 26 35 63 35 45 0 80-30 80-94z m-143 177c0 1 0 1 0 1l0-1z"/>
<glyph unicode="&#39;" d="M429 36c0 0-1 0-1 0l-156 65c-1 1-2 2-2 3-1 1 0 3 1 4 18 17 27 40 27 65 0 11-1 21-5 31 0 1 0 1 0 1l-114 153c-23-20-44-49-42-78 0-2-1-4-4-4-2-1-4 1-4 3-3 35 24 69 51 90 32 25 66 36 90 28 2 0 3-3 3-5-1-2-3-3-6-2-20 6-52-4-82-27l117-156c30-18 70-17 99 3 1 1 3 1 4 0 1 0 2-1 2-3l26-167c0-1 0-3-1-3-1-1-2-1-3-1z m-148 70l143-60-24 154c-29-17-66-19-96-3 2-8 3-16 3-24 0-25-10-48-26-67z m-179 213c-2 0-4 2-4 4-3 35 24 69 51 90 32 25 66 36 90 28 2-1 3-3 3-5-1-2-3-3-6-3-20 7-53-3-82-26-25-20-50-52-48-83 0-2-1-4-4-4 0-1 0-1 0-1z m274-257c6 20 23 36 44 40l9-62z m-182 406c-53 0-135-75-105-127l175-232 165-69-28 181-175 231c-7 11-18 16-32 16m0 16c20 0 36-8 46-22l174-231c2-2 3-5 3-7l28-182c1-6-1-11-6-15-3-2-6-3-10-3-2 0-4 0-6 1l-166 69c-2 1-5 3-6 5l-175 232c0 1-1 1-1 2-13 22-11 50 5 77 24 41 75 74 114 74z"/>
<glyph unicode="&#40;" d="M382 486c-33 1-50-2-69-12-26-13-42-39-56-72-20 35-32 59-61 73-18 9-36 14-73 9-29-7-60-29-67-78-5-18-2-55 23-92 7-11 16-27 28-43 25-34 57-73 74-99 42-66 49-77 61-107 2-4 13-35 15-39 13 56 60 135 118 204 60 69 104 149 73 205-13 28-37 43-66 51z"/>
<glyph unicode="&#41;" d="M236 249c-1 0-3 0-4 2 0 6 2 11 4 15 1 2 2 4 3 6l0 3 1-3c2-6 1-17-1-23z m193 39l-1-1c-13-12-18-33-22-52 11 3 21 13 25 24 2 7 4 17-2 28z m-241-34c1 0 2-1 3-1l0 0 2 1c1 5 0 12-1 18-4-5-7-10-8-17l0-1 2 0c1 0 2 0 2 0z m298-120c0-9-7-16-16-16l-428 0c-9 0-16 7-16 16l0 244c0 9 7 16 16 16l428 0c9 0 16-7 16-16z m-322 90c-5 12-8 27-10 41-4 17-8 36-14 50-1 0-2-1-3-1-2 0-4 0-6 0-2 0-4-2-6-2 0 0 0 0 0 0-1 0-1 3-2 3-10-14-14-33-18-52-3 5-5 9-7 14-5 8-9 17-14 24-1 0-2 0-4 0-5 0-10-1-15-3l0-12c-1-22-1-41 5-59 1 0 2 0 3 0 6 0 12 3 15 4 0 6-1 10-1 15-1 2-1 5 0 8 4-5 7-11 11-16 2-4 4-7 6-10 1 0 2 0 3 0 2 0 5 0 7 0 2 1 5 1 7 1l2 0c3 6 3 16 3 26 0 9 1 18 4 25 5-20 11-39 18-59 3 0 6 1 9 2 2 1 4 1 5 1 1 0 1 0 2 0z m53-4c-1 2-4 4-7 4-2 0-5-1-7-2-3-1-5-1-8-1 0 0-1 0-2 0-3 1-5 2-7 5-3 5-3 12-1 21 5-1 10-1 16-1 1 0 1 0 2 0 2 0 3-1 4-1 3 12 1 29-1 38-2 1-4 1-5 2-3 1-6 2-10 2 0 0-1 0-2 0-11-2-19-18-21-34-2-14 1-31 15-36 3-2 6-2 10-2 8 0 18 2 24 5z m47 3c-1 3-3 4-6 5-3-4-7-7-12-7-5 0-11 3-14 7-3 4-3 10-1 15 4-1 9-1 12-1 4 0 7 0 9 0-1 10 0 16 1 23 1 6 2 12 3 20-6 4-11 6-18 6-15-12-23-30-22-56 2-11 17-18 30-18 7 0 14 2 18 6z m54 35c-2 2-4 4-5 6-3 3-6 6-11 8-1 0-1-1-1-3-1-2-1-5-3-5l-2 0 0 1c0 8 0 17-1 27-1 14-2 28 1 40-3 4-8 6-17 6 0 0-1 0-1 0 0 0-1 2-1 3-5-15-3-31-1-49 2-10 3-20 1-29-1 0-3 0-5 1-2 0-3 0-5 0-2 0-4-1-5-2-1-1-1-3-1-6 3-2 10-2 16-2l4-1c0-6 0-11 1-16 0-8 1-15 1-24 2 0 3 0 4 0 3 1 6 1 9 1 0 6-1 12-1 17 0 8 0 16 0 23 3 1 6 1 10 2 5 0 11 0 13 2z m57 10c-4 3-8 8-14 8 0 0-1 0-1 0-1 0-1-1-2-1l0-5c0-16-1-38-15-43-2 10-2 20-3 29 0 5 0 9 0 12-1 1-3 2-4 3-4 2-7 4-13 5-2-27 1-45 8-53 3-3 7-5 12-5 4 0 7 1 11 2l2 2c2 4 4 7 8 10 1 2 2 4 3 6 5 8 10 16 8 30z m72 25c-8 5-15 7-22 7-8 0-15-3-21-11-12-14-15-44-17-58 0-1-1-1-2-1-2-1-4-1-5-2 7-8 8-20 9-32 1-9 2-19 5-25 1 0 3-1 6-1 1 0 3 0 4 0 3 0 5 0 7 0-5 11-6 26-5 47 18 5 34 17 41 33 5 10 8 25 0 43z"/>
<glyph unicode="&#42;" d="M445 26l-68 49-68-49 26 79-67 49 83 0 26 79 26-79 83 0-67-49z m-129 73c-14 10-99 71-99 71 0 0 105 0 122 0 6 17 38 116 38 116 0 0 32-99 38-116 8 0 37 0 65 0l-103 316-83-254-268 0 269-196c9 26 18 54 21 63z"/>
<glyph unicode="&#43;" d="M422 175c0 18 14 32 32 32 18 0 32-14 32-32 0-17-14-32-32-32-18 0-32 15-32 32z m32 133c18 0 32 14 32 32 0 17-14 31-32 31-18 0-32-14-32-31 0-18 14-32 32-32z m-122-7c0-18 14-32 32-32 18 0 32 14 32 32 0 18-14 32-32 32-18 0-32-14-32-32z m-160-211c-18 0-32-15-32-32 0-18 14-32 32-32 18 0 32 14 32 32 0 17-14 32-32 32z m128 243c17 0 32 14 32 32 0 17-15 32-32 32-18 0-33-15-33-32 0-18 15-32 33-32z m64-88c-18 0-32-14-32-32 0-18 14-32 32-32 18 0 32 14 32 32 0 18-14 32-32 32z m-152-64c-17 0-32-14-32-32 0-18 15-32 32-32 18 0 33 14 33 32 0 18-15 32-33 32z m128-91c-18 0-33-15-33-32 0-18 15-32 33-32 17 0 32 14 32 32 0 17-15 32-32 32z m0 332c17 0 32 15 32 32 0 18-15 32-32 32-18 0-33-14-33-32 0-17 15-32 33-32z m-192-241c18 0 32 14 32 32 0 18-14 32-32 32-18 0-32-14-32-32 0-18 14-32 32-32z m-90 127c18 0 32 14 32 32 0 17-14 31-32 31-18 0-32-14-32-31 0-18 14-32 32-32z m0-165c18 0 32 15 32 32 0 18-14 32-32 32-18 0-32-14-32-32 0-17 14-32 32-32z m90 126c18 0 32 14 32 32 0 18-14 32-32 32-18 0-32-14-32-32 0-18 14-32 32-32z m152-152c17 0 32 14 32 32 0 18-15 32-32 32-18 0-33-14-33-32 0-18 15-32 33-32z m-120 248c0-18 15-32 32-32 18 0 33 14 33 32 0 17-15 32-33 32-17 0-32-15-32-32z m-8 57c18 0 32 15 32 32 0 18-14 32-32 32-18 0-32-14-32-32 0-17 14-32 32-32z"/>
<glyph unicode="&#44;" d="M165 265c-31-32-67-60-100-90-7 3-11 8-14 14 34 29 67 58 100 88 5-3 10-8 14-12z m182 5c-3-5-9-7-11-12 35-30 69-60 106-87 5 4 10 6 12 12-37 28-69 60-107 87z m-200 141c-26 0-63 0-96 0 0-6 0-11 0-17 30-2 65 0 97-1 9-69 37-120 101-135 0-38 0-75 0-113-95-8-165-40-187-120 17-3 39-1 59-1 19 53 62 82 128 89 0-29 0-59 0-88 4-3 13-1 20-1 0 30-2 63 1 92 76-4 127-33 148-92 12 0 25 0 37 0-21 82-94 112-186 122 0 38 0 75 0 113 60 16 84 68 94 134 31 0 61 0 92 0 3 6 0 12 0 18-34 1-58-1-93 1 0 29-5 52-14 72-11 0-21 0-32 0 7-21 16-46 12-73-37 2-96-3-140 2 0 28 7 49 13 71-13 0-26 0-39 0-10-18-13-50-15-73z m45-18c45 0 91 0 136 0-4-42-19-95-57-105-9-2-18-2-26 0-36 10-50 60-56 102 0 2 1 3 3 3z"/>
<glyph unicode="&#45;" d="M240 161c-12 0-24 4-34 9 15-4 33-3 51 4 20 8 36 22 43 38 0-28-27-51-60-51z m9-30c43 0 79 26 89 62-14-26-43-47-79-52-31-4-61 5-81 22 16-20 42-32 71-32z m115 105c0-3 0-6 0-9 0-63-51-115-114-115-45 0-84 27-103 67 14-47 57-81 108-81 62 0 112 50 112 112 0 9-1 18-3 26z m66-37c0-98-79-177-176-177-98 0-177 79-177 177 0 72 43 134 105 162l-32 95c-4 11 2 22 13 25l0 1c2 0 4 0 6 0 9 0 17-6 20-15l22-97c14 4 28 6 43 6 97 0 176-80 176-177z m-34 0c0 79-64 143-142 143-12 0-24-2-35-5l27-112c2-12 2-22-2-23 0 0 0-1-1-1-3 0-9 8-12 18l-38 109c-48-23-82-72-82-129 0-79 64-143 143-143 78 0 142 64 142 143z"/>
<glyph unicode="&#46;" d="M484 317l0 111-460 0 0-348 111 0 0 236 63 0 0-236 112 0 0 236 63 0 0-236 111 0z"/>
<glyph unicode="&#47;" d="M486 191c0-50-40-91-90-91l-280 0c-50 0-90 41-90 91 0 45 33 83 76 90-1 3-1 6-1 10 0 32 26 58 57 58 14 0 27-6 37-14 18 40 41 77 105 77 78 0 114-60 114-124 0-2 0-5 0-8 41-8 72-45 72-89z"/>
<glyph unicode="&#58;" d="M26 213c7 72 66 97 75 100-15 12-24 29-24 49 0 35 29 64 65 64 35 0 64-29 64-64 0-19-9-37-23-49 12-4 24-10 34-19-28-14-90-54-99-142 0-1 0-1 0-2-55 3-60 18-60 18l0 0c-4 4-6 8-8 13-8 2-13 6-13 6 0 0-12 5-11 26z m227 79c-13-5-101-42-112-148-1-31 17-38 17-38 0 0 0 0 0 0 0 0 7-7 19-10 2-7 6-13 12-18l0 0c0 0 8-23 95-28 1 0 3 0 4 0 7 0 14 0 21 0 3 0 6 0 9 0 8 0 16 0 24 0 3 0 5 0 7 1 89 6 98 33 98 33l0 1c3 3 5 7 6 11 41 8 37 57 25 94-17 51-59 87-104 103 21 17 35 43 35 72 0 52-43 94-96 94-53 0-96-42-96-94 0-29 14-56 36-73z"/>
<glyph unicode="&#59;" d="M486 242l0-60-460 0 0 148 59 0 0-88 342 0 0 88 59 0z"/>
<glyph unicode="&#60;" d="M361 331c-42 0-77 35-77 77 0 43 35 77 77 77 43 0 77-34 77-77 0-42-34-77-77-77z m-63-74c0 43-34 77-77 77-42 0-76-34-76-77 0-1 0-3 0-5l0 0 0-133 153 0 0 133 0 0c0 2 0 4 0 5z m-77 88c32 0 57 25 57 56 0 31-25 56-57 56-31 0-56-25-56-56 0-31 25-56 56-56z m245-132c0 58-47 105-105 105-58 0-105-47-105-105 0-3 1-5 1-7l-1 0 0-182 210 0 0 182 0 0c0 2 0 4 0 7z m-356 130c-35 0-63-28-63-63 0-2 0-3 0-4l0 0 0-109 126 0 0 109-1 0c0 1 0 2 0 4 0 35-28 63-62 63z m0 8c25 0 46 21 46 46 0 26-21 46-46 46-26 0-47-20-47-46 0-25 21-46 47-46z"/>
<glyph unicode="&#61;" d="M272 189l55 40c5-3 11-5 17-5 18 0 33 14 33 32 0 18-15 33-33 33-18 0-32-15-32-33 0-1 0-2 0-4l-40-29 0 91 55 40c5-3 11-4 17-4 18 0 33 14 33 32 0 18-15 33-33 33-18 0-32-15-32-33 0-1 0-3 0-4l-40-29 0 137-32 0 0-72-40 29c0 2 0 4 0 6 0 18-14 33-32 33-19 0-33-15-33-33 0-18 14-33 33-33 5 0 11 2 15 4l57-41 0-91-40 30c0 1 0 3 0 5 0 18-14 33-32 33-19 0-33-15-33-33 0-18 14-32 33-32 5 0 11 1 16 4l56-41 0-97-40 29c0 2 0 4 0 6 0 18-14 32-32 32-19 0-33-14-33-32 0-18 14-33 33-33 5 0 11 2 16 4l56-40 0-97 32 0 0 32 55 39c5-3 11-5 17-5 18 0 33 15 33 33 0 18-15 33-33 33-18 0-32-15-32-33 0-1 0-3 0-4l-40-29 0 97z"/>
<glyph unicode="&#62;" d="M427 181c-25 19-32 135-55 202-24 67-102 69-114 79-12 10-19 21-19 21 0 0-1 1-2 2-3 4-18-2-18-5 0-3 0-252 0-290 0-37-44-22-97-60-40-29-47-63-35-85 10-19 56-34 108 6 46 35 43 82 43 95 0 25 0 286 0 286 0 0 0 21 0 37 1-2 3-5 7-11 26-43-3-81 30-161 37-87 177-135 152-116z m-34 29c0 0-44 53-60 97-15 38-33 84-50 108-11 15-20 28-23 33-2 3 1 2 1 2 0 0 11-14 24-30 21-27 28-42 51-102 8-21 19-47 30-64 14-24 24-38 29-45 1-1-2 1-2 1z"/>
<glyph unicode="&#63;" d="M441 301c-45 26-91 40-134 46l0 119-70-45 0-73c-217-17-340-240 0-302l70 45 0 208c28-4 58-14 90-28l-40-25 129 0 0 85z m-204 2l0-212c-211 27-162 198 0 212z"/>
<glyph unicode="&#64;" d="M256 486c-127 0-230-103-230-230 0-127 103-230 230-230 127 0 230 103 230 230 0 127-103 230-230 230z m0-387c-87 0-157 70-157 157 0 87 70 157 157 157 87 0 157-70 157-157 0-87-70-157-157-157z"/>
<glyph unicode="&#91;" d="M393 448c-29 25-69 37-119 37l-197 0 0-16c63 0 71-11 71-89l0-250c0-78-8-90-71-90l0-16 202 0 0 16c-63 0-71 12-71 90l0 96 66 0c50 0 90 12 119 36 28 25 42 55 42 93 0 38-14 68-42 93z m-119-194l-66 0 0 202 66 0c62 0 95-42 95-101 0-59-33-101-95-101z"/>
<glyph unicode="&#93;" d="M140 465c-59-24-100-69-111-130-7-38-4-78 12-113 4-8 9-16 14-23 2-3 5-6 8-9 5 2 10 4 15 7 20 11 35 29 52 43-57 67 4 149 80 167 70 17 166-12 188-85 9-30 3-63-22-85-13-12-29-19-46-22-10-2-21-2-31-1-5 0-11 1-17 2-9 3-17 2-17 13 0 26 0 53 0 79 0 13 0 27 0 40 0 8 0 7-6 7-6 1-11 2-16 2-19 1-39 2-57-1-7-1-8 0-8-7 0-6 0-13 0-19 0-15 0-29 0-44 0-45 3-90 2-134-1-13-1-45-16-52-17-7-32 9-48 12 2-22-12-66 14-78 24-10 51-14 76-5 53 18 70 76 63 124 82-24 169 17 204 90 25 52 14 117-23 161-70 84-211 100-310 61z"/>
<glyph unicode="&#94;" d="M323 486l-202 0-89-410 118 0 29 136 85 0c81 0 148 50 166 135 21 96-48 139-107 139z m-88-195l-39 0 25 112 58 0c20 0 35-12 40-29-2 0-5 1-7 1l-58 0z m84 56c-7-31-36-55-65-56l14 61 52 0c0-2 0-3-1-5z m144-28c6 31 3 57-6 78 19-23 29-56 20-101-19-85-86-134-167-134l-85 0-29-136-118 0 5 22 99 0 29 136 85 0c81 0 148 50 167 135z"/>
<glyph unicode="&#95;" d="M465 402l-128 0c-24 13-52 20-81 20-29 0-57-7-81-20l-45 0c0 11-9 20-21 20l-42 0c-11 0-20-9-20-20-12 0-21-10-21-21l0-250c0-11 9-21 21-21l128 0c24-13 52-20 81-20 29 0 57 7 81 20l128 0c12 0 21 10 21 21l0 250c0 11-9 21-21 21z m-418-271l0 250 98 0c-34-31-57-75-57-125 0-50 23-94 57-125z m284 0c-11-6-22-11-35-15 0 0-1 0-2 0-5-2-10-3-15-4-2 0-3 0-5 0-6-1-12-2-18-2-6 0-12 1-18 2-2 0-3 0-5 0-5 1-10 2-15 4-1 0-2 0-2 0-13 4-24 9-35 15-43 26-72 72-72 125 0 53 29 99 72 125 11 6 22 11 35 15 0 0 1 0 2 0 5 2 10 3 15 4 2 0 3 0 5 0 6 1 12 2 18 2 6 0 12-1 18-2 2 0 3 0 5 0 5-1 10-2 15-4 1 0 2 0 2 0 13-4 24-9 35-15 43-26 72-72 72-125 0-53-29-99-72-125z m134 0l-98 0c34 31 57 75 57 125 0 50-23 94-57 125l98 0 0-250z m-94 125l-18 0c0 53-43 97-97 97l0 17c64 0 115-51 115-114z"/>
<glyph unicode="&#96;" d="M162 155c5 0 293 0 301 0-35-73-106-122-186-129l-42 0c-25 2-50 8-73 19 0 3 0 105 0 110z m189 311c-30 13-62 20-95 20-27 0-54-5-80-15 6-5 167-152 175-159 0 10 0 150 0 154z m-200-5c-77-40-125-118-125-205 0-20 3-40 8-60 6 5 200 182 204 185-4 4-84 77-87 80z m-14-403c0 9 0 188 0 199-7-7-92-84-95-87 19-46 52-86 95-112z m238 394c0-9 0-268 0-272 5 0 95 0 98 0 9 24 13 50 13 76 0 80-42 155-111 196z"/>
<glyph unicode="&#123;" d="M162 155c5 0 293 0 301 0-35-73-106-122-186-129l-42 0c-25 2-50 8-73 19 0 3 0 105 0 110z m189 311c-30 13-62 20-95 20-27 0-54-5-80-15 6-5 167-152 175-159 0 10 0 150 0 154z m-200-5c-77-40-125-118-125-205 0-20 3-40 8-60 6 5 200 182 204 185-4 4-84 77-87 80z m-14-403c0 9 0 188 0 199-7-7-92-84-95-87 19-46 52-86 95-112z m238 394c0-9 0-268 0-272 5 0 95 0 98 0 9 24 13 50 13 76 0 80-42 155-111 196z"/>
<glyph unicode="&#124;" d="M296 228l90 95-87-21-138 128 0 56-146-148 66 3 118-145-14-78 87 88 204-180z"/>
<glyph unicode="&#125;" d="M26 362c12 2 29 4 52 4 25 0 43-6 54-15 12-9 19-24 19-41 0-18-6-32-16-42-14-13-35-20-59-20-6 0-12 1-17 2l0-70-33 0z m33-86c5-1 10-1 17-1 25 0 41 12 41 34 0 20-14 31-38 31-9 0-16-1-20-2z m103-96l0 133 34 0 0-133z m57 94c0 15-1 28-1 39l29 0 2-20 1 0c6 11 21 23 43 23 23 0 48-15 48-57l0-79-34 0 0 75c0 19-7 34-26 34-14 0-23-10-27-20-1-3-1-7-1-11l0-78-34 0z m266-75c0-27-6-47-20-60-13-12-33-16-52-16-17 0-35 4-47 11l8 25c8-5 23-10 39-10 22 0 39 11 39 40l0 12-1 0c-7-12-21-20-39-20-34 0-57 27-57 65 0 44 28 70 61 70 21 0 32-10 39-21l0 0 2 18 29 0c0-9-1-20-1-38l0-76z m-34 61c0 3 0 6-1 9-3 12-13 21-28 21-19 0-33-16-33-43 0-23 12-41 33-41 13 0 24 8 28 21 1 3 1 7 1 11z m-272 129c-17 0-31-13-31-30 0-17 14-30 31-30 17 0 31 13 31 30 0 17-14 30-31 30z m0-54c-14 0-24 11-24 24 0 13 10 24 24 24 13 0 24-11 24-24 0-13-11-24-24-24z m11 16c0-3-2-5-4-5-3-1-5 1-5 4 0 2 1 5 4 5 1 0 2 0 2 0l0 12-12-2 0-16 0 0c0 0 0 0 0 0 0-2-2-5-4-5-3 0-5 1-5 4 0 3 1 5 4 5 1 0 2 0 2 0l0 18 18 3 0 0 0 0 0 0 0-23 0 0c0 0 0 0 0 0z"/>
<glyph unicode="&#126;" d="M159 158l139 0c0-75-62-135-139-135-76 0-139 60-139 135 0 74 63 135 139 135z m322 193c0-73-61-132-136-132l-136 0 0 139 0 0c3 70 63 126 136 126 75 0 136-60 136-133z m-116-66c0 11-9 20-21 20-11 0-20-9-20-20 0-11 9-20 20-20 12 0 21 9 21 20z m0 134c0 11-9 20-21 20-11 0-20-9-20-20 0-1 0-2 0-3l6-79c0-8 6-15 14-15 9 0 15 7 15 15l6 79c0 1 0 2 0 3z"/>
<glyph unicode="&#92;" d="M274 77l-71 30 0 328c0 0 153-25 174-89 21-64-11-105-23-106-32-4-44 17-44 17l0 102-35 15z m18 45l0-38c0 0 166 53 190 74 24 20-57 72-101 62 0 0-46-3-88-21-1 0 0-35 0-35l106 26 38-17z m-106 3c0 0-22-11-70-11-48 1-91 14-90 43 0 29 79 61 159 74l0-40-85-23c0 0-14-18 5-19 45-1 81 11 81 11z"/>
<glyph unicode="&#57344;" d="M163 243c1-17 5-57 13-79-10 2-21 4-32 7-12 2-24 4-31 10-8 6-16 16-16 30 0 21 15 37 35 39 12 1 21-3 31-7z m225 187c-17 29-46 60-95 56-24-2-43-14-58-27-30-26-51-63-60-108-5-25-6-51-5-77 0-14 0-28 2-40 4-38 11-72 23-103 11-30 26-57 46-80 7-7 14-17 21-21 25-13 53 4 53 30 0 13-5 16-12 25-3 5-7 11-10 16-1 3-2 5-4 7l0 0c0 0-21 26-36 99-3 15-5 32-7 49 0 0 0 0 0 0l0 0c-1 11-1 22-1 34 0 46 7 84 28 110 6 8 18 19 30 18 20 0 30-21 35-35 13-40 6-88-8-120-7-17-15-31-31-39-12-6-26-6-39-3 0 0-2-20 20-76 21-1 39 6 53 15 45 28 74 82 81 146 4 50-7 93-26 124z"/>
<glyph unicode="&#57345;" d="M337 484l-283 0 0-461 117 0 0 127 283 0 0 334z m0-218l-166 0 0 102 166 0z"/>
<glyph unicode="&#57346;" d="M26 238c0 3 0 6 0 9 0 132 103 239 230 239 127 0 230-107 230-239 0-3 0-6 0-9-5 128-106 230-230 230-124 0-225-102-230-230z m230 143c78 0 141-63 146-142 0 3 0 6 0 9 0 83-65 151-146 151-81 0-146-68-146-151 0-3 0-6 0-9 5 79 68 142 146 142z m0-44c-26 0-48-23-48-50 0-27 22-50 48-50 26 0 48 23 48 50 0 27-22 50-48 50z m0-104c-38 0-70-2-70-75 0-73 32-132 70-132 38 0 70 59 70 132 0 73-32 75-70 75z"/>
<glyph unicode="&#57347;" d="M157 26l0 174 2 3 5 0 1-1c19-32 55-50 98-50 73 0 147 53 147 172 0 96-56 162-137 162-50 0-90-21-114-61l-2-1-5 0-3 56-47 0c2-32 3-64 3-104l0-350z m0 320c0 6 2 14 5 24 10 45 49 76 93 76 59 0 101-51 101-125 0-78-41-129-103-129-44 0-81 29-93 72-2 7-3 15-3 25z"/>
<glyph unicode="&#57348;" d="M360 26c1 0 1 0 2 0 21 0 41 0 61 0 9 53 16 102 23 150 8 49 21 98 25 149 8 101-52 154-148 160-104 8-174-27-220-73-36-36-60-79-63-137-5-92 65-163 185-153 14 1 28 5 41 11 19 8 31 23 47 32-12-54-32-139 47-139z m-65 205c-18-14-62-21-90-4-49 30-19 126 17 153 10 7 23 12 41 14 14 2 39-1 51-9 42-29 21-126-19-154z"/>
<glyph unicode="&#57349;" d="M360 26c1 0 1 0 2 0 21 0 41 0 61 0 9 53 16 102 23 150 8 49 21 98 25 149 8 101-52 154-148 160-104 8-174-27-220-73-36-36-60-79-63-137-5-92 65-163 185-153 14 1 28 5 41 11 19 8 31 23 47 32-12-54-32-139 47-139z m-65 205c-18-14-62-21-90-4-49 30-19 126 17 153 10 7 23 12 41 14 14 2 39-1 51-9 42-29 21-126-19-154z"/>
<glyph unicode="&#57350;" d="M364 114c58 36 97 102 97 176 0 115-92 208-205 208-113 0-205-93-205-208 0-114 92-207 205-207 17 0 33 2 48 6 20-36 49-61 112-49l0 35c0 0-40 11-52 39z m-2 149c0-35-11-66-29-89-22 24-58 43-102 41l0-41c0 0 30-1 51-37-8-2-16-3-24-3-58 0-105 57-105 129 0 9 0 44 0 54 0 71 47 129 105 129 57 0 104-58 104-129 0-10 0-45 0-54z"/>
<glyph unicode="&#57351;" d="M424 283c1-9 2-18 2-27 0-106-90-192-200-192-111 0-200 86-200 192 0 106 89 192 200 192 21 0 42-3 62-9l0-117c0 0-60 33-113-5-53-38-43-79-43-79 0 0 2-63 77-63 84 0 108 77 108 77l0 175c16-8 31-18 46-30 36-22 73-36 115-35 0 0 8 2 8-14 0-9-3-19-12-29 0 0-16-25-50-36"/>
<glyph unicode="&#57352;" d="M42 301c11 36 40 43 45 44 29 67 96 114 174 114 79 0 147-47 175-115 1 0 2 0 3 0l0 90c-10 4-17 14-17 25 0 15 12 27 27 27 16 0 28-12 28-27 0-13-9-23-21-26l0-98c9-6 18-17 23-34 0 0 9-45-6-56 0 0-7-11-29-19-1-6-3-12-6-18-8-2-16-3-25-5 13 23 20 49 20 77 0 90-77 162-173 162-96 0-174-72-174-162 0-29 8-56 22-79-8 2-15 3-23 5-2 6-4 13-6 19 0 0 0 0 0 1-23 8-31 19-31 19-15 11-6 56-6 56z m214-200c-66 80-230 87-230 87l0-61c148-1 230-101 230-101l0 0c0 0 82 100 230 101l0 61c0 0-164-7-230-87z m157 151c0-19-4-38-10-54-51-12-112-34-147-76l0 0c-33 40-91 62-140 74-7 17-11 36-11 56 0 84 69 151 154 151 85 0 154-67 154-151z m-227 24c0 9-8 17-17 17-10 0-17-8-17-17 0-10 7-17 17-17 9 0 17 7 17 17z m41 43c0 14-12 26-26 26-15 0-27-12-27-26 0-15 12-26 27-26 14 0 26 11 26 26z"/>
<glyph unicode="&#57353;" d="M355 239c1-3 2-6 2-9 0-7-2-13-6-18-4-5-9-9-15-10l0 0c0 0 0 0 0 0 0 0 0 0 0 0-3-1-6-2-8-2-7 0-14 3-19 7-5 4-9 10-10 17l0 0c0 0 0 0 0 0 0 0 0 0 0 0l0 0c-1 2-1 4-1 5 0 6 2 12 5 17 4 5 9 9 14 11 0 0 0 0 0 0 0 0 0 0 0 0 3 1 7 1 10 1 6 0 12-2 17-5 5-3 9-8 11-14 0 0 0 0 0 0 0 0 0 0 0 0z m-18-74c-3 1-5 2-8 2-3 0-5-1-7-2-21-12-45-19-68-19-18 0-36 4-52 12l0 0 0 0c-3 1-5 3-8 5-2 1-3 2-5 3-2 0-4 1-6 1-2 0-4 0-5-1 0 0 0 0-1 0l0 0c-2-1-5-3-6-6-1-2-2-5-2-8 0-2 0-5 2-7 1-2 3-4 5-5 23-16 50-23 77-23 25 0 49 6 71 16l0 0 0 0c3 2 7 4 11 6 1 1 3 2 5 4 1 2 2 4 3 6l0 0c0 2 1 3 1 4 0 2-1 4-2 5-1 3-3 5-5 7z m-162 37c0 0 1 0 1 0 3-1 6-2 9-2 7 0 14 3 20 8 5 5 9 12 9 20 0 1 0 1 0 1 0 0 0 1 0 1 0 8-4 15-9 20-6 5-13 8-20 8-2 0-4 0-6 0 0 0 0 0 0 0 0 0 0 0 0 0-10-2-19-10-22-20l0 0c0 0 0 0 0 0-1-3-2-6-2-8 0-7 2-13 6-18 3-4 8-8 14-10 0 0 0 0 0 0z m311 72l0 0c0-1 0-2 0-3 0-11-3-22-9-31-6-9-13-16-22-21 0-4 1-8 1-13 0-24-9-48-23-67l0 0 0 0c-27-35-68-56-110-67l0 0 0 0c-22-5-45-8-67-8-34 0-68 6-100 19l0 0 0 0c-33 13-64 35-83 66-11 17-16 37-16 57 0 4 0 9 0 13-8 5-16 12-21 20-6 9-10 20-10 31l0 0c0 15 6 30 17 40 10 11 24 18 39 18 1 0 1 0 1 0 2 0 3 0 5 0 7 0 15-1 22-4l0 0 0 0c7-2 13-6 18-10 2 1 4 2 6 3 33 20 72 27 110 29 0 19 2 39 12 56 7 14 20 25 36 29l0 0 0 0c6 1 12 2 18 2 16 0 32-4 47-10 6 10 15 17 26 22l0 0 0 0c7 2 14 3 20 3 8 0 15-1 22-4l0 0c0 0 0 0 0 0 0 0 0 0 0 0 9-4 18-11 23-20 6-8 10-19 10-29 0-2 0-4-1-6l0 0c0 0 0 0 0 0-1-14-8-26-18-35-9-8-22-13-35-13-3 0-5 0-7 0-13 1-25 7-34 17-9 9-15 22-15 35 0 1 0 1 0 2-12 6-25 10-38 10-2 0-4 0-5 0l0 0c-10-1-19-7-23-16l0 0c-7-13-8-28-9-43 37-2 75-11 108-30l0 0 0 0c1-1 2-1 3-2 2 2 5 4 7 5 10 7 22 10 34 10 5 0 10 0 15-2l0 0 0 0c1 0 1 0 1 0l0 0c12-3 22-10 31-19 8-9 13-21 14-34l0 0z m-109 122c0-1 0-1 0-2l0 0c0-6 3-12 8-17 5-4 11-7 17-7l0 0c1 0 1 0 2 0 6 0 12 3 17 7 5 4 8 10 8 17l0 0 0 0c0 1 0 1 0 2 0 6-3 13-8 17-5 5-11 8-18 8-2 0-4 0-6-1l0 0 0 0c-6-1-11-5-14-9-4-4-6-10-6-15z m-274-100c-5 2-10 4-15 4-1 0-2 0-3 0l0 0 0 0c-7 0-15-3-20-9-6-5-9-11-9-19l0 0 0 0c-1-1-1-1-1-2 0-5 2-9 4-13 2-3 4-6 7-8 9 18 22 34 37 47z m323-91c0 17-6 33-15 47-20 27-50 44-81 54l0 0c-6 2-12 4-18 5-18 4-37 6-56 6-25 0-50-4-74-11-31-10-61-27-81-54l0 0c-9-14-15-31-15-47 0-6 1-12 2-18l0 0c4-14 11-26 20-36 8-11 19-20 31-27 2-1 5-3 7-4 34-19 72-27 110-27 7 0 13 0 20 1 38 3 76 14 108 37l0 0c9 8 19 16 26 26 7 11 13 22 15 34l0 0 0 0c1 5 1 9 1 14z m31 66c0 4-1 8-3 12l0 0 0 0c-3 6-7 10-12 13-6 3-12 4-18 4-5 0-10-1-15-4 15-13 28-29 37-47 3 2 5 5 7 8 2 5 4 9 4 14z"/>
<glyph unicode="&#57354;" d="M118 120c-9 0-17 8-17 18l0 140-75 0 102 112 103-112-76 0 0-103 81 0 53-55z m368 114l-75 0 0 140c0 10-8 18-17 18l-171 0 53-55 81 0 0-103-76 0 103-113z"/>
<glyph unicode="&#57355;" d="M295 302c0 10 8 17 17 17 9 0 17-7 17-17 0-9-8-16-17-16-9 0-17 7-17 16z m-51 143l0 0 0-23 21 0 0 22c7 4 12 11 12 20 0 12-10 22-22 22-12 0-22-10-22-22 0-8 4-15 11-19z m-46-159c9 0 16 7 16 16 0 10-7 17-16 17-9 0-17-7-17-17 0-9 8-16 17-16z m57-260c25 0 46 16 54 38l-108 0c8-22 29-38 54-38z m-173 68c0 8 5 16 12 20l0 94c0 19 15 34 33 36l0 45c0 0 5 84 74 110 20 8 39 11 55 11 16 0 35-3 55-11 69-26 74-110 74-110l0-45c18-2 33-17 33-36l0-94c7-4 12-12 12-20 0-13-10-23-22-23-12 0-22 10-22 23 0 8 5 16 12 20l0 63c-4-2-8-3-13-4l0-22c0-2 0-3 0-5 0-2 0-4 0-6l0 0 0 0c-3-37-32-67-68-71l0 0-122 0 0 0c-36 4-65 34-68 71l0 0 0 0c0 2 0 4 0 6 0 2 0 3 0 5l0 22c-5 1-9 2-13 4l0-63c7-4 12-12 12-20 0-13-10-23-22-23-12 0-22 10-22 23z m211 116c0 6-5 11-11 11-6 0-10-5-10-11 0-6 4-11 10-11 6 0 11 5 11 11z m26 0c0 6-5 11-11 11-5 0-10-5-10-11 0-6 5-11 10-11 6 0 11 5 11 11z m26 0c0 6-4 11-10 11-6 0-11-5-11-11 0-6 5-11 11-11 6 0 10 5 10 11z m-179 89c0-28 23-30 23-30 7-2 23-1 31 0 7 1 31 3 35 4 1 0 1 0 1 0 0 0 0 0 1 0 4-1 28-3 35-4 8-1 24-2 31 0 0 0 23 2 23 30 0 0 0 32-23 51-21 19-53 23-66 23l0 0c0 0 0 0 0 0-1 0-1 0-1 0 0 0 0 0-1 0 0 0 0 0 0 0l0 0c-13 0-45-4-66-23-23-19-23-51-23-51z"/>
<glyph unicode="&#57356;" d="M130 130c11-11 18-26 18-43 0-17-7-32-18-43l0 0c-11-11-26-18-43-18-17 0-32 7-43 18-12 11-18 26-18 43 0 17 6 32 18 43l0 0c11 11 26 18 43 18 17 0 32-7 43-18z m0 0l0 0c0 0 0 0 0 0z m-86-86c0 0 0 0 0 0 0 0 0 0 0 0z m-18 286l0-88c57 0 111-23 152-64 41-40 63-95 63-152l0 0 0 0 89 0c0 83-34 159-90 214-55 56-131 90-214 90z m0 156l0-88c205 0 372-167 372-372l88 0c0 127-51 242-135 325-83 84-198 135-325 135z"/>
<glyph unicode="&#57357;" d="M325 76c-4-4-7-8-11-12-27-26-58-38-96-38-36 0-68 9-96 29-28 20-50 50-65 89l1 1c-1 4-2 9-2 13 0 28 23 50 50 50 28 0 50-22 50-50 0-14-6-26-15-36 20-22 45-34 75-34 22 0 40 7 54 19 14 13 22 30 22 49 0 12-4 24-12 36-7 11-16 21-28 29-11 7-29 16-53 26-24 10-43 19-56 27-13 9-25 19-34 30-10 11-17 23-21 34-5 11-7 24-7 36 0 31 12 58 37 80 26 21 56 32 92 32 23 0 47-5 72-15 20-8 37-21 52-37 10-9 17-22 17-37 0-27-22-49-50-49-28 0-50 22-50 49 0 8 2 14 5 21-11 5-24 7-41 7-21 0-39-5-52-14-13-10-20-22-20-37 0-13 6-25 17-35 12-10 32-21 60-33 28-12 50-23 65-33 16-10 28-22 38-34 10-13 18-26 23-40 0-1 0-2 1-2-22-18-35-44-35-73 0-18 5-34 13-48z m73 105c-32 0-58-26-58-57 0-32 26-58 58-58 32 0 58 26 58 58 0 31-26 57-58 57z"/>
<glyph unicode="&#57358;" d="M188 256c0-2 0-3 0-5l165-82c14 12 32 19 52 19 45 0 81-36 81-81 0-45-36-81-81-81-45 0-81 36-81 81 0 2 0 3 0 5l-165 82c-14-12-32-19-52-19-45 0-81 36-81 81 0 45 36 81 81 81 20 0 38-7 52-19l165 82c0 2 0 4 0 5 0 45 36 81 81 81 45 0 81-36 81-81 0-45-36-81-81-81-20 0-38 7-52 19l-165-82c0-2 0-3 0-5z"/>
<glyph unicode="&#57359;" d="M89 94c-34 38-62 86-65 151 0 6 0 12 0 19 1 27 8 52 17 74 11 30 29 57 50 75 0-14 0-27 1-36 5-26 19-55 37-73 15-14 34-24 54-35 40-21 78-40 118-61 26-14 52-31 60-58 10-38-12-74-30-92-17-18-38-30-64-34-10 0-20 0-31 0-63 7-113 33-147 70z m152 232c37-20 75-39 112-59 20-10 37-20 51-35 24-27 40-61 37-112 6 6 11 15 16 23 13 24 24 56 27 92 0 1 0 1 1 2 0 12 0 24 0 36-16 126-102 202-223 212-4 0-8 0-12 0-24-4-47-11-60-26-10-11-17-30-18-42-5-53 33-73 69-91z"/>
<glyph unicode="&#57360;" d="M465 221c2 10 3 22 3 33 0 118-96 214-214 214-11 0-22-1-33-3-20 12-43 19-68 19-71 0-129-57-129-129 0-25 7-48 19-68-2-11-2-22-2-33 0-118 95-214 213-214 12 0 23 1 34 3 19-12 43-19 68-19 71 0 129 57 129 129 0 25-7 48-20 68z m-109-64c-9-13-23-23-40-31-17-7-38-11-62-11-28 0-52 5-70 15-13 7-24 17-32 29-9 12-13 24-13 36 0 6 3 12 8 17 5 5 12 7 19 7 7 0 12-2 16-5 5-4 9-10 12-17 3-8 7-15 11-21 4-5 10-10 18-14 7-3 17-5 30-5 17 0 31 4 41 11 11 7 16 16 16 27 0 9-3 15-8 21-6 5-13 9-23 12-9 3-21 6-36 9-21 5-38 10-52 16-14 6-26 15-34 25-8 11-12 24-12 39 0 15 4 28 13 40 9 11 21 20 38 26 16 7 35 10 58 10 17 0 33-2 46-6 13-5 23-10 32-17 9-7 15-14 19-21 4-8 6-15 6-22 0-7-3-13-8-18-5-6-11-8-19-8-7 0-12 1-16 5-3 3-7 8-11 15-5 10-11 18-19 23-7 6-18 8-34 8-15 0-27-3-36-9-9-6-13-13-13-21 0-5 1-9 4-13 3-4 7-7 13-10 5-3 11-5 16-6 6-2 15-4 28-7 16-4 31-8 44-12 13-4 24-9 34-15 9-7 16-14 22-24 5-9 7-21 7-34 0-17-4-31-13-44z"/>
<glyph unicode="&#57361;" d="M69 29l204 457 88 0-204-457z m374 69c0 41-33 73-73 73-41 0-73-32-73-73 0-40 32-72 73-72 40 0 73 32 73 72z"/>
<glyph unicode="&#57362;" d="M479 306c-17-34-54-44-90-63 0-27 0-63 0-73 0-10-13-70-64-70-50 0-67 29-67 41 0 6 0 37 0 67-5 1-10 3-14 6 0-28 0-61 0-73 0-12-19-29-44-29-25 0-73 35-73 58 0 23 0 79 0 79 0 0-66 26-81 45-16 18-24 26-19 37 4 11 54-31 83-37 29-7 79-11 101-10 21 1 33-8 45-19 1 0 1-1 2-2 0 6 0 9 0 9 0 10 28 14 44 14 16 0 64 0 73 0 8 0 74 22 90 39 15 17 31 12 14-19z m-153 4c28 0 51 23 51 51 0 28-23 51-51 51-28 0-51-23-51-51 0-28 23-51 51-51z m-134 0c28 0 51 23 51 51 0 28-23 51-51 51-28 0-51-23-51-51 0-28 23-51 51-51z"/>
<glyph unicode="&#57363;" d="M212 452c0-19-20-35-45-35-24 0-44 16-44 35 0 19 20 34 44 34 25 0 45-15 45-34z m156 34c-25 0-45-15-45-34 0-19 20-35 45-35 24 0 44 16 44 35 0 19-20 34-44 34z m118-175c0-34-76-285-272-285-195 0-217 184-163 297 11 23 22 25 22 25l381 0c0 0 32-3 32-37z m-46-9l-349 0c-23-46-32-120-1-172 28-48 83-58 124-58 149 0 215 184 226 230z"/>
<glyph unicode="&#57364;" d="M26 210c0-16 7-30 18-39l0 78c-11-10-18-24-18-39m37 49l0-98c5-2 10-2 15-2l5 0 0 102c-2 0-4 0-5 0-5 0-10-1-15-2m43-6c-1 0-3 1-4 2l0-96 19 0 0 128c-8-10-13-22-15-34m34 52l0-146 20 0 0 156c-7-2-14-6-20-10m39 14l0-160 19 0 0 159c-4 1-8 1-12 1-2 0-5 0-7 0m49-11c-6 3-13 6-20 8l0-157 29 0 0 160c-3-3-6-7-9-11m19 21l0-170 183 0 0 0c39 2 56 26 56 56 0 31-23 56-54 56-8 0-15-2-22-5-5 49-47 87-98 87-25 0-48-9-65-24"/>
<glyph unicode="&#57365;" d="M104 80c36 52 95 85 162 85 61 0 115-28 151-71 41 41 67 99 67 162 0 127-103 230-231 230-127 0-230-103-230-230 0-70 32-133 81-176z m273 107c-4-8-10-9-17-6-30 14-65 22-101 22-37 0-72-8-103-23-3-2-11-2-14 7-3 10 2 15 5 17 34 16 72 25 112 25 40 0 78-8 111-25 5-2 10-10 7-17z m19 59c-2-4-6-6-10-6-2 0-3 0-4 1-37 16-79 26-123 26-43 0-84-9-122-26-1 0-2-1-4-1-4 0-8 3-11 6l-2 8c0 3 2 7 5 9 41 19 86 29 134 29 48 0 94-10 135-29 3-2 5-6 5-9z m-288 93c47 19 98 29 151 29 54 0 104-10 151-29 6-3 10-9 10-17 0-10-8-19-19-19-1 0-3 0-4 1-43 17-89 26-138 26-48 0-95-9-137-26-1-1-3-1-4-1-11 0-20 9-20 19 0 7 4 13 10 17z m158-250c-39 0-74-19-96-48 26-10 54-15 83-15 37 0 71 8 102 23-22 25-54 40-89 40z"/>
<glyph unicode="&#57366;" d="M102 274l138 139c35 35 91 35 126 0 8-9 8-23-1-32-8-9-22-9-31 0l-2 3c-18 15-44 14-60-3l-142-142c-9-9-23-9-32 0-9 9-9 23 0 32 1 1 3 2 4 3z m311-4c-9 9-23 9-32 0-1-1-2-2-3-3l-138-139c-17-17-45-17-63 0l0 0c-9 9-23 9-32 0-8-9-8-23 0-31 1-2 3-3 4-3 35-32 89-31 123 2l141 143c8 9 8 23 0 31z m-217-91c-1-1-2-2-3-3-9-9-9-23 0-32 8-9 22-9 32 0l141 142c17 18 46 18 63 0 17-17 17-46 0-63l-134-136c17-17 45-17 63 0l102 104c35 35 35 92 0 127-34 35-91 35-125 0z m-19 12l141 143c9 8 9 23 0 31-8 9-23 9-31 0-1-1-2-2-3-3l-138-139c-17-18-46-18-63 0-17 17-17 46 0 63l134 136c-17 17-45 17-63 0l-102-104c-35-35-35-92 0-127 34-35 91-35 125 0z"/>
<glyph unicode="&#57367;" d="M425 120c-6-20-25-32-43-27-17 5-26 26-20 46 6 20 25 32 42 27 18-5 27-26 21-46z m-74-94c-43 5-74 41-82 83-5 26 1 45-16 51-30 12-70-8-108-4-34 5-60 31-61 75-1 40 28 95-13 113 18-4 32-7 39-23 17-32-9-95 19-113 14-9 39-4 56-2 19 2 33 8 51 8-11 15-27 18-39 27-14 10-34 29-43 47-17 32-14 89-37 110-18 15-48 16-79 10 21 18 75 21 95 6 27-19 21-74 45-103 11-13 27-18 40-23 13-5 28-10 49-12 16 68-37 77-70 107-25 22-41 49-37 103 5-28 11-52 31-68 13-10 32-14 47-22 36-21 69-54 78-104 8 5 14 15 21 25 7 10 16 18 16 31 1 19-13 34-24 44-29 22-82 16-70 78 5-15 6-33 18-41 18-13 46-13 66-25 18-11 46-35 45-66 0-36-35-50-20-91 35-10 53-10 72-27 73-63 19-206-89-194z m99 86c14 47-8 95-48 107-41 12-86-16-100-63-14-47 8-95 49-107 41-13 85 16 99 63z"/>
<glyph unicode="&#57368;" d="M452 313c0-24-19-43-43-43-23 0-42 19-42 43 0 23 19 42 42 42 24 0 43-19 43-42z m-17-72l-52-44c1-4 1-7 1-11 0-37-30-68-68-68-32 0-60 23-66 53l-128 43c-10-7-23-12-36-12-33 0-60 27-60 60 0 33 27 60 60 60 28 0 52-20 58-47l123-41c13 12 29 19 47 20l19 56c0 1 0 2 0 3 0 42 34 77 77 77 42 0 76-35 76-77 0-33-21-62-51-72z m-312 41c-7 13-21 22-36 22-24 0-42-19-42-42 0-23 18-42 42-42 4 0 8 1 12 2l-20 7c-16 8-22 28-14 44 9 16 29 22 45 14z m227 31c0-33 26-60 59-60 33 0 60 27 60 60 0 33-27 59-60 59-33 0-59-26-59-59z m1-133c0 25-21 45-46 45-3 0-7 0-10-1l26-8c16-9 22-29 13-45-9-16-29-22-45-13l-27 9c6-19 23-32 43-32 25 0 46 20 46 45z"/>
<glyph unicode="&#57369;" d="M486 130c0-43-35-79-79-79l-12 0c-44 0-79 36-79 79l0 98c0 16-12 29-27 29l-107 0c-15 0-28-12-28-27 0-14 13-27 29-28l16-1c43-2 77-37 76-77-2-40-38-73-81-73l-168 0 0 51 168 0c16 0 29 11 29 24 1 12-12 23-27 24l-16 1c-43 2-78 38-78 79 0 43 36 77 79 77l107 0c44 0 79-35 79-79l0-98c0-15 12-28 28-28l12 0c16 0 28 13 28 28l0 331 46 0c2 0 3-1 5-1z"/>
<glyph unicode="&#57370;" d="M101 472c21 3 43 1 65 2-22-28-41-60-44-95-7-56 22-110 64-144 12-6 7-20 7-31-3-26-7-52-8-79 33 20 63 45 97 63 69-13 144-5 204 33 0-30 0-61 0-91 1-35-20-69-52-83-15-8-31-9-48-9-91 1-183 0-274 1-46 0-86 41-86 87-1 84 0 168 0 253-3 43 32 85 75 93z m120-59c-15-16-26-37-26-60-2-30 15-60 39-78 50-38 124-41 179-10 30 17 55 48 55 84 1 31-17 61-42 79-29 21-65 30-100 29-39-1-78-16-105-44z"/>
<glyph unicode="&#57371;" d="M277 301l122 141 0 44-281 0 0-110 57 0 0 58 128 0c9 0 24 2 24 2l0-2c0 0-11-7-18-16l-112-133 15-33c3 0 15 1 27 1 56 0 102-30 102-84 0-50-43-86-95-86-65 0-112 50-112 50l-34-46c0 0 55-61 150-61 96 0 158 68 158 145 0 88-73 124-131 130z"/>
<glyph unicode="&#57372;" d="M443 259c-4 0-8-1-12-2l-24 45c5 5 7 12 7 20 0 18-14 32-32 32-10 0-20-5-25-13l-115 37c0 1 0 3 0 5 0 17-14 32-32 32-18 0-32-15-32-32 0-3 0-5 0-8l-72-31c-8 13-22 21-37 21-24 0-43-19-43-43 0-24 19-43 43-43 7 0 14 2 21 5l71-87c-4-9-7-19-7-30 0-39 31-70 70-70 34 0 62 25 68 57l0 0 113 41c8-13 22-22 38-22 24 0 43 19 43 43 0 24-19 43-43 43z m-332 56c0 2 1 4 1 6l74 40c6-7 14-11 24-11 8 0 16 4 22 9l19-6c-44-3-80-40-80-85 0-8 2-16 4-24z m72-92l0 1c0 0 0 0 1 0-1 0-1-1-1-1z m96-14c-13 17-33 27-55 27-7 0-14-1-20-2-6 9-10 21-10 34 0 34 28 62 63 62 34 0 63-28 63-62 0-27-17-50-41-59z m124 21l-104-37 0 0c26 15 43 42 43 75 0 26-11 49-30 65l38-13c1-17 15-30 32-30 3 0 5 0 8 1l24-43c-5-5-9-11-11-18z"/>
<glyph unicode="&#57373;" d="M310 236c-3 6-6 11-9 16 8 5 15 9 15 9l76 45c-1 3-1 5-1 8 0 16 12 28 28 28 15 0 28-12 28-28 0-15-13-28-28-28-7 0-12 3-17 6-17-11-41-25-77-47z m12-64c-3-1-6-2-8-4-1 0-3 2-3 2-3 1-6 2-13 7-4-4-8-8-13-11l12-7c0 0 6-4 8-5 0-2 0-3 0-5 0-2 0-4 1-7 3-12 16-20 29-16 5 2 10 5 13 11 2 3 3 7 3 11 0 3 0 5-1 7-3 13-16 20-28 17z m-23 47c-3 27-30 45-61 42-32-4-54-28-51-55 3-26 30-44 61-41 31 4 54 28 51 54z m153 26c-17 0-30-11-34-26-32 0-68 1-105 1 0-2 0-5 0-7 0-4-1-7-2-11 38 0 74 1 106 1 4-16 18-28 35-28 19 0 34 16 34 35 0 19-15 35-34 35z m-264-72c-2 3-4 5-6 8-14-8-26-16-36-23-5 5-12 8-19 8-7-1-14-4-19-9-5-5-7-12-7-19 1-14 13-26 28-25 14 0 25 12 25 26l0 1c0 2 0 4-1 6 1 0 21 11 40 22-2 2-3 3-5 5z m-100 120c5-3 11-4 16-3 3 1 6 2 9 4 1-1 27-21 27-21l42-32 0 0c3 5 7 9 11 14l0 0c-37 29-60 44-72 51 0 2 1 3 1 5l-1 4c-2 12-13 19-25 17-5-1-10-4-13-9-3-4-4-8-4-12 0-1 0-3 0-4 2-6 5-10 9-14z m151 26c0-12 0-28 0-44 2 1 5 1 8 1 3 0 6 0 8-1 0 16 0 32-1 44 20 4 34 20 34 40 0 22-19 40-41 40-22 0-41-18-41-40 0-20 14-36 33-40z m-65-105c0 2 0 4 0 6-32 0-62-1-89-1-3 14-15 24-29 24-17 0-30-14-30-30 0-17 13-30 30-30 13 0 24 8 28 20 27 0 58 0 90-1-1 4-1 8 0 12z"/>
<glyph unicode="&#57374;" d="M296 110c-7 4-14 12-17 20-3 7-3 23-3 49l0 119 108 0 0 82-108 0 0 106-66 0c-3-23-8-43-16-58-8-16-18-29-31-40-13-11-35-19-53-25l0-65 63 0 0-162c0-21 2-37 7-48 4-11 12-22 24-32 11-9 25-17 42-22 16-6 29-8 50-8 18 0 36 1 52 5 16 4 34 10 54 20l0 72c-23-15-47-22-70-22-14 0-25 3-36 9z"/>
<glyph unicode="&#57375;" d="M370 141l-114 0c-16 0-29 5-40 16-11 12-17 25-17 41l0 40 162 0c15 0 28 6 38 16 11 11 16 23 16 38 0 14-5 27-16 37-10 11-23 16-38 16l-162 0 0 84c0 16-5 29-16 40-12 12-25 17-41 17-16 0-30-5-41-16-11-11-17-25-17-41l0-231c0-48 17-88 51-122 33-34 74-50 121-50l114 0c16 0 29 5 41 17 11 11 17 24 17 40 0 16-6 30-17 41-12 11-25 17-41 17z"/>
<glyph unicode="&#57376;" d="M434 274c26 2 44 13 50 29-9-5-38-12-54-6-1 4-2 8-2 11-13 45-54 81-98 76 3 2 7 3 11 4 4 2 33 7 28 17-4 8-38-7-45-9 9 3 23 9 25 19-13-2-26-8-36-17 3 4 6 8 7 13-35-22-56-67-73-111-13 13-24 23-34 28-29 16-64 32-119 52-1-18 9-42 40-58-7 1-19-1-29-3 4-21 17-38 52-46-16-1-24-5-32-13 8-14 25-31 57-27-35-16-14-44 15-40-50-50-127-47-171-4 116-158 368-94 405 59 29-1 45 9 55 20-16-2-39 0-52 6z"/>
<glyph unicode="&#57377;" d="M469 118c0 20-14 20-30 27l-77 31c-1 0-2 1-4 1l0 0c-13 6-25 15-30 21l0 0 0 0c0 1-1 1-1 2l0 0 0 0 0 0 0 0c-2 3-4 5-6 4l0 0 0 0 0 0 0 0 0 0-1 0c-2-1-1 0-2 2-2 6-6 16-6 18-1 3-3-5-3 4l1 14c2 2 3 3 4 4 5 6 5 21 8 24 2 4 7 5 12 22 5 17 11 42 5 42-2 0-4-1-5-2 1 6 3 20 4 31 0 14-2 49-10 62-5 9-15 17-25 23-6 4-12 7-17 9-14 6-60 3-75 0-18-4-30-15-38-28-8-13-11-52-11-66 1-6 4-17 5-23 1-4 1-4 2-6-1 0-1 0-2 0-6 0 0-25 5-42 5-17 10-18 12-22 3-3 3-18 8-24 1-1 2-2 4-4l1-12 1-7c-1 2-2 4-3 1-2-7-4-13-6-20 0 1-1 1-1 1-2 2-5 0-8-4-3-6-16-16-31-22l0-1 0-1 0 0c-1-1-2-1-4-1l-76-31c-17-7-31-7-31-27l-12-67 460 0z"/>
<glyph unicode="&#57378;" d="M375 227c62 0 111 50 111 111 0 61-49 110-111 110-56 0-102-41-110-94l-3 0c-8 53-55 94-110 94-62 0-112-49-112-110 0-61 49-110 110-111l0 0 3 0 0-37-127 34 0-147 127 38 0-51 188 0-55 163 89 0c0 0 0 0 0 0z m-223 80c-18 0-32 13-32 31 0 17 14 31 32 31 17 0 31-14 31-31 0-18-14-31-31-31z m194 31c0 17 14 31 31 31 18 0 32-14 32-31 0-18-14-31-32-31-17 0-31 13-31 31z"/>
<glyph unicode="&#57379;" d="M419 456c-64 2-107-34-130-108 12 5 23 7 34 7 23 0 34-13 31-39-1-16-12-39-31-70-19-30-34-46-43-46-13 0-24 24-34 71-4 14-10 49-19 106-8 52-30 77-66 73-15-1-38-15-68-41-22-20-45-40-67-60l21-28c21 14 33 22 36 22 16 0 31-25 45-75 12-46 25-91 37-137 19-50 41-75 68-75 44 0 97 41 159 123 61 78 92 139 94 184 3 60-19 91-67 93z"/>
<glyph unicode="&#57380;" d="M241 115l-101 0-114 282 97 0 68-184 67 184 95 0z m245 233c0 27-21 48-47 48-27 0-48-21-48-48 0-26 21-47 48-47 26 0 47 21 47 47z"/>
<glyph unicode="&#57381;" d="M196 428l61-209 62 209 149 0 0-22-54-108c22-7 42-20 53-38 12-19 19-41 19-66 0-31-7-57-23-78-17-21-37-32-64-32-19 0-36 7-51 19-14 13-25 30-32 51l35 15c5-13 11-24 20-31 8-8 18-11 29-11 12 0 22 6 30 20 8 13 12 29 12 47 0 21-4 43-13 54-10 14-26 26-48 26l-29 0 0 8 72 107-72 0-4 0-86-287-5 0-63 213-63-213-4 0-101 326 44 0 61-209 41 140-20 69z"/>
<glyph unicode="&#57382;" d="M486 260c0-124-101-225-226-225-39 0-77 11-109 28l-125-39 40 120c-20 34-32 73-32 116 0 124 101 224 226 224 125 0 226-100 226-224z m-226 189c-105 0-190-85-190-189 0-41 13-80 36-111l-24-70 74 23c30-19 66-31 104-31 105 0 190 85 190 189 0 104-85 189-190 189z m114-241c-1 2-5 4-10 7-6 2-33 16-38 17-5 2-9 3-13-2-3-6-14-18-17-22-3-4-7-4-12-1-6 3-24 8-45 27-16 15-27 33-31 38-3 6 0 9 3 11 2 3 5 7 8 10 3 3 4 6 6 9 2 4 1 7-1 10-1 3-12 30-17 41-4 11-9 9-12 9-4 0-7 0-11 0-4 0-10-1-15-7-5-5-19-18-19-45 0-28 20-54 22-57 3-4 39-61 95-83 57-22 57-15 67-14 10 1 33 13 37 26 5 13 5 24 3 26z"/>
<glyph unicode="&#57383;" d="M486 415c0 0-71 0-95 0l-7-1 0-10c0-1 3-2 4-2 1-1 3-1 4-1l9-1c10 0 13-2 17-6 3-4 4-10 1-19l-84-220-3 1-54 121c1 1 1 2 1 2l44 90c5 10 10 18 13 22 4 8 6 9 19 10 2 0 3 1 3 3l0 9 0 1c0 0-53 1-76 0l0 0 0-10c0-1-1-2 0-2 1-1 1-1 2-1l4-1c9 0 14-3 15-5 2-3 3-6-2-20l-34-74-30 69c-10 22-13 28 2 30l4 1c3 0 3 1 3 3l0 10-1 0c0 0-55 0-81 0l0-1 0-9c0-2 2-3 6-4 14-2 14-3 28-34 2-4 8-18 8-18l32-68c0 0 3-9 9-23l-46-101-3 1c0 0-71 166-92 221-2 6-3 10-3 13 0 5 4 9 14 9l14 0c3 0 7 2 7 4l0 9-4 1c0 0-88 0-105 0l-3-1 0-9c0-2 2-3 6-4 11 0 18-2 22-5 3-4 7-12 11-24 27-69 82-192 109-262 8-19 17-22 29 1 12 25 37 80 55 121 17-41 39-96 50-121 9-20 19-22 29 0 27 65 104 259 104 259 4 10 8 17 14 23 6 5 15 8 28 9 2 0 3 1 3 3l0 10z"/>
<glyph unicode="&#57384;" d="M120 443c29 12 54 17 77 18 13 0 24-2 35-4 17-4 40-17 49-22l-42-142c-21 14-47 27-82 27l0 0c-23 0-48-5-77-16z m65-341c10 35 35 119 43 144-6 4-11 7-17 10-21 11-42 17-62 17-3 0-5-1-8-1-25-2-48-8-63-14-4-1-8-2-12-4l-40-140c27 11 52 16 74 16 37 0 63-14 85-28z m246 104c-26-8-52-13-75-13-43 0-74 14-93 28l-40-141c12-7 52-29 83-29 26 0 54 7 86 20z m55 191c-26-11-52-16-77-16-41 0-71 14-91 28l-41-142c27-18 57-27 89-27 25 0 52 6 79 18l0 1 1 0z"/>
<glyph unicode="&#57385;" d="M26 472c41 0 82 0 123 0 4-78 16-133 22-205 9 54 15 138 23 205 41 0 83 0 124 0 2-80 8-123 11-204 13 61 24 135 34 204 41 0 82 0 123 0-20-144-33-294-56-436-48 0-97 0-146 0-7 51-15 105-23 167-11-55-22-114-33-167-49 0-97 0-146 0-23 142-43 285-56 436z"/>
<glyph unicode="&#57386;" d="M26 256c0-127 103-230 230-230 127 0 230 103 230 230 0 127-103 230-230 230-127 0-230-103-230-230z m17 0c0 31 7 60 19 87l101-278c-71 34-120 107-120 191z m213-213c-21 0-41 3-60 9l64 185 65-179c1-1 1-2 2-3-22-7-46-12-71-12z m172 217c12 30 16 55 16 76 0 8 0 15-1 22 16-30 26-65 26-102 0-78-43-147-106-184z m-46 65c8-14 18-32 18-58 0-18-6-41-17-69l-21-71-77 229c13 0 25 2 25 2 11 1 10 18-2 17 0 0-34-2-56-2-21 0-56 2-56 2-12 1-13-17-2-17 0 0 11-2 23-2l33-91-47-140-77 231c13 0 24 2 24 2 12 1 10 18-1 17 0 0-35-2-57-2-4 0-9 0-14 0 38 58 104 96 178 96 55 0 106-22 144-56-1 0-2 0-3 0-21 0-36-18-36-38 0-17 10-32 21-50z"/>
<glyph unicode="&#57387;" d="M52 369c38 71 115 118 204 118 58 0 110-24 150-59-11 2-24 0-36-7-30-17-40-66-1-90 24-15 32-53 32-76-1-23-56-128-56-128l-54 184c0 0-2 13-2 17 0 4 2 10 5 13 2 3 5 7 8 7l26 0 0 21-139 0 0-21 5 0c4 0 9-6 13-10 5-6 11-25 19-45l20-67-43-100-48 200c0 0 2 14 5 16 1 2 4 6 8 6l1 0 0 21z m27-35c0 0-11 14-23 14l-12 0c-12-25-18-60-18-91 0-95 58-176 141-211z m375 36c5-20 4-46-5-73-22-72-77-202-99-252 81 36 136 116 136 209 0 43-11 82-32 116z m-193-194l-59-144c17-4 35-7 54-7 19 0 38 3 56 7z"/>
<glyph unicode="&#57388;" d="M309 26l-103 180 160 280 108 0-160-280 103-180z m-169 139l80 132-60 105-102 0 60-105-80-132z"/>
<glyph unicode="&#57389;" d="M397 326c-12-3-115-83-121-103-2-7 0-72 1-82 7-2 56 0 65-2l-1-20c-9 0-71 0-107 0-18 0-76-2-94-1l4 19c9 1 50-2 59 8 4 5 3 67 1 78-3 11-94 124-118 143l-60 0 0 28 205 0 0-2c0 0 0 0 1 0l-1-5 0-21-62 0c28-41 67-89 84-113l83 75-49 0-7 29 180 0-2-2c1 0 1 0 1 0l-13-19c0 0 0 0 0 0l-5-8-34 0c-4-1-8-2-10-2z m59-178l-16 0-18 2 0-30 14-1 15-1z m30 145c-5 0-54 5-60 6l1-129 27-2z"/>
<glyph unicode="&#57390;" d="M256 26c-85 0-154 69-154 153l0 307 88 0 0-307c0-36 30-66 66-66 36 0 66 30 66 66 0 37-30 66-66 66l-44 0 0 88 44 0c85 0 154-69 154-154 0-84-69-153-154-153z"/>
<glyph unicode="&#57391;" d="M256 26c127 0 230 103 230 230 0 127-103 230-230 230-127 0-230-103-230-230 0-127 103-230 230-230z m59 356c16 0 30-13 30-30 0-17-14-30-30-30-17 0-30 13-30 30 0 17 13 30 30 30z m-114 0c16 0 30-13 30-30 0-17-14-30-30-30-17 0-30 13-30 30 0 17 13 30 30 30z m-107-96l324 0 0-60-1 0c-6-83-76-149-161-149-85 0-155 66-161 149l-1 0z m302-54l-284 0 0 37 284 0 0-37z"/>
<glyph unicode="&#57392;" d="M142 465c23 19 68 24 86 20 19-3 28-13 29-26l1-160c0-12-7-24-15-25-8-2-20 5-26 16l-84 137c-7 11-20 16 9 38z m-28-303l85 29c11 5 22 16 23 26 1 10-7 22-19 27l-89 35c-12 5-25-6-29-24 0 0-2-62 0-75 3-12 17-23 29-18z m147-15c1 12-6 23-14 24-9 1-22-7-30-16l-59-71c-8-9-4-32 7-36l62-22c12-4 32 9 33 21z m147 16l-74 21c-12 4-26 3-30 0-5-4-4-17 2-27l47-86c6-11 30-9 37 2 0 0 28 41 33 57 5 15-3 30-15 33z m18 120c-4 11-27 43-39 53-13 11-27 10-35 0l-48-56c-8-10-10-25-4-34 5-9 19-14 32-11l82 15c15 4 15 22 12 33z"/>
<glyph unicode="&#57393;" d="M389 149l-25 0 0 15c0 7 5 12 12 12l1 0c7 0 12-5 12-12z m-95 32c-6 0-12-4-12-10l0-71c0-5 6-10 12-10 6 0 12 5 12 10l0 71c0 6-6 10-12 10z m154 40l0-136c0-33-28-59-63-59l-258 0c-35 0-63 26-63 59l0 136c0 32 28 59 63 59l258 0c35 0 63-27 63-59z m-304-151l0 143 32 0 0 21-85 1 0-21 26 0 0-144z m96 122l-27 0 0-76c0-12 1-17 0-19-2-6-12-12-15-1-1 2 0 8 0 19l-1 77-26 0 0-76c0-11 0-20 0-24 1-7 0-15 7-20 12-8 35 2 41 14l0-16 21 0 0 122z m85-88l0 64c0 24-18 39-42 19l0 47-27 0 0-163 22 0 2 11c28-26 46-8 45 22z m84 9l-20 0c0-1 0-2 0-3l0-11c0-6-5-11-11-11l-4 0c-6 0-11 5-11 11l0 29 46 0 0 17c0 13 0 26-1 33-4 23-36 26-52 15-5-4-9-9-11-15-2-7-3-16-3-27l0-38c0-63 76-54 67 0z m-103 206c2-4 4-6 7-8 3-2 6-3 11-3 4 0 7 1 10 3 3 2 5 5 7 9l0-10 30 0 0 127-24 0 0-99c0-5-4-10-10-10-5 0-9 5-9 10l0 99-25 0 0-86c0-11 0-18 1-22 0-3 1-7 2-10z m-90 71c0 12 1 22 3 29 2 7 6 12 11 16 5 4 12 6 20 6 7 0 13-1 18-4 5-2 9-6 11-10 3-4 5-9 6-13 1-5 1-12 1-21l0-32c0-12 0-20-1-26-1-5-3-10-6-15-3-5-7-8-11-11-5-2-10-3-16-3-7 0-13 1-18 3-4 2-8 5-11 9-2 4-4 8-5 14-1 5-2 14-2 25l0 33z m23-50c0-7 6-13 12-13 7 0 12 6 12 13l0 67c0 8-5 13-12 13-6 0-12-5-12-13z m-82-34l28 0 0 97 33 83-30 0-18-62-18 62-30 0 35-83z"/>
<glyph unicode="&#57394;" d="M486 346c0 38-30 69-68 69l-324 0c-38 0-68-31-68-69l0-185c0-38 30-69 68-69l324 0c38 0 68 31 68 69z m-276-171l0 174 132-87z"/>
<glyph unicode="&#57395;" d="M95 122c5 0 10 0 14 0 36 0 66-1 98-17 25-13 46-34 70-48 23-14 49-28 76-31 55-6 76 59 67 102-24-20-58-19-88-11-30 10-76 40-76 40l0 0c-21 13-45 24-70 23 0 11 1 11 7 19 10 11 19 22 28 32 29 34 58 68 88 102 24 28 49 57 74 86 2 3 11 10 11 14 2 13 3 26 5 39 1 9-8 7-8 7l0 0c-41-9-82-13-123-11-23 1-47 3-68 12-1 0-5 2-10 5-6 3-10 1-12-1-2-2-4-4-5-6-11-15-21-32-23-51 0-4-1-13 1-18l0 0c0 0 1-1 1-2 0 0 1 0 1 0 5-7 28-28 121-10-60-71-120-142-180-212 0 0 0 0 0-1-4-3-4-10-4-10 0-12 0-25 0-38 0 0 0-3 0-6 1-6 4-7 5-8z"/>
<glyph unicode="&#57396;" d="M119 159c13 0 34 11 47 23 70-134 89-156 137-156 52 0 105 39 105 75 0 12-7 23-13 26-22-12-42-18-59-18-23 0-36 10-108 119 55 49 87 81 129 142 36 24 50 46 50 65 0 17-14 39-32 39-9 0-16-8-25-23-67 27-98 35-133 35-32 0-59-29-59-62 0-19 8-30 20-34 15 10 28 13 36 13 22 0 55-9 96-22-20-30-74-86-112-117-15 13-24 17-37 17-42 0-61-50-61-81 0-32 8-41 19-41z"/>
<glyph unicode="&#57397;" d="M364 485c0 0 32 3 57-14 9 1 16-3 21-12 4-8 13-29 6-42-2-2-7 8-7 8 0 0-3-12-10-17 1-26-9-44-12-50-1-3-1-6 1-10 1-3 18-64 17-84-1-20-11-44-19-53 2-16-6-31-10-37-4-7-12-33-14-45-3-12-3-25-1-29 3-4 14-16 13-22 0-6-13-13-19-13-6 0-18 4-21 12-3 8-4 23-2 31 3 8 17 68 9 103-21-9-57-9-57-9 0 0-6-31-13-49-2-5-2-34-2-53 0-18 6-47 6-47 0 0 9-6 8-14-1-9-11-13-20-13-9 0-21 6-21 18 0 11 1 36 0 55 0 18 0 30-3 42-3 12-12 42-12 66-3 0-7 2-7 2 0 0-14-16-24-26 2-6 5-18 5-21 0-2 3-4 7-6 4-2 18-9 17-16 0-8-17-9-32-3-3 2-15 44-17 49-2 6-3 9-1 14 2 5 8 20 7 29-1 9-17 23-28 23-9 0-22-13-32-20-11-9-25-23-28-25-3-2-30-51-36-66-2-5-6-33-29-32-10 0-19 12 10 32 7 17 17 35 18 38 1 4 8 48 21 90 13 42 32 62 36 65 3 2 4 3 1 5-3 2-33 28-27 83 1 7 3 5 5-10 2-15 14-49 41-60 2-1 21 13 118 20 1 17 3 35 3 35 0 0-7 6-8 16-3-5-5-7-9-6-4 1-4 21-3 35 1 14 18 20 24 21 8 4 16 3 16 3 0 0 15 15 57 9z"/>
<glyph unicode="&#57398;" d="M242 435c122-6 250-91 244-203-4-82-88-154-220-155-56-1-91 9-115 19-2 0-3 1-3 2 1 1 2 1 4 0 58-14 79 10 69 27-11 20-85 19-138 56l1 1c0 0 3 8 4 10 1 2 2 3 4 3l64 0c2 0 3-1 4-3 2-3 7-16 7-16 0 0 4-11 15-12 3 0 12 1 15 11 1 3 1 5 0 7 0 1 0 1 0 2-1 1-1 1-1 1-1 2-66 148-66 148-1 3-3 5-6 5-1 0-2 0-3-1-1-1-1-1-1-2-1-1-1-1-1-2-1-1-39-86-57-126l-3-6c-6 7-9 12-9 12-12 16-23 42-24 64-6 91 84 164 216 158z m4-253l0 139c0 11-6 16-17 16-10 0-16-5-16-16l0-139c0-12 6-16 16-16 11 0 17 4 17 16z m196 0l0 139c0 11-6 16-17 16-5 0-10-1-12-4-2-2-3-4-5-7l-48-108-48 108c-1 3-3 5-4 7-3 3-8 4-13 4-11 0-17-5-17-16l0-139c0-12 7-16 17-16 11 0 17 4 17 16l0 65 33-67c2-5 8-10 14-10 8 0 14 5 17 11l32 66 0-65c0-12 6-16 17-16 10 0 17 4 17 16z m-299 42l-38 0c-2 0-2 2-2 3l19 44 0 0c0 1 0 1 1 1 0 0 0 1 1 1 1 0 2-1 2-1l0-1 0 0 19-44c1-2 0-3-2-3z"/>
<glyph unicode="&#57399;" d="M298 358c-11-1-24-2-37-4-19-2-39-6-55-14-32-12-54-40-54-80 0-51 33-77 74-77 14 0 25 2 35 5 17 5 30 14 47 31 9-13 12-19 28-32 4-2 8-2 12 1 10 8 28 24 38 32 4 4 3 9 0 13-9 12-18 22-18 46l0 77c0 33 2 63-22 85-20 18-50 25-74 25-4 0-7 0-11 0-43-3-90-22-100-76-2-7 3-9 7-10l48-6c5 1 8 5 8 9 5 19 20 29 37 31 1 0 2 0 4 0 10 0 21-5 27-13 7-11 6-24 6-36z m0-50c0-20 1-35-9-53-6-12-17-19-28-22-1 0-4-1-7-1-18 0-30 15-30 36 0 28 17 41 37 47 11 2 24 3 37 3z m158-241c21 17 30 50 30 66l0 3c0 4-1 7-1 8-5 5-35 10-62 2-7-2-14-6-20-10-5-3-4-7 1-7 5 1 12 2 19 3 16 1 35 1 40-5 7-8-7-42-13-57-2-5 2-7 6-3z m-428 66c60-54 139-87 228-87 55 0 118 15 167 45 7 4 13 8 19 12 9 7 1 16-7 12-4-1-8-3-12-4-54-22-110-31-162-31-83 0-163 23-228 60-6 4-10-2-5-7z"/>
<glyph unicode="&#57400;" d="M26 209l0 63c0 5 4 10 10 10l111 0-49-83-62 0c-6 0-10 4-10 10z m78-128l-35-24c-5-3-8-1-7 5l4 41c1 5 6 8 11 5l27-16c5-3 5-8 0-11z m9 23l-28 16c-5 3-6 9-3 14l126 219c3 5 9 7 14 4l28-16c5-3 6-9 3-14l-126-219c-3-5-9-7-14-4z m96 95l48 83 28 0 39-83z m157-25c-11 5-66 130-80 163-14 33-56 119-42 126 10 5 44-63 71-104 26-41 80-147 87-159 6-12-7-22-14-25-7-4-11-7-22-1z m35-58l-16 26c-3 6-2 12 4 15l16 8c5 3 12 1 15-5l13-25c3-5 1-13-5-16l-11-6c-5-4-12-2-16 3z m61-67c-4 11-30 11-42 28-11 16-2 25 3 29 47 26 39-57 39-57z m24 160c0-6-4-10-10-10l-55 0c-1 3-2 6-4 9-1 3-5 10-10 19-7 14-18 34-29 55l98 0c6 0 10-5 10-10l0-63z"/>
<glyph unicode="&#57401;" d="M280 451c16 20 44 34 67 35 3-27-8-54-24-73-16-20-42-35-68-33-3 27 10 54 25 71z m131-368c-19-28-39-56-70-57-31 0-41 19-76 19-35 0-46-18-75-19-30-2-53 30-73 58-39 57-69 162-29 232 20 35 56 57 95 58 30 0 58-20 76-20 18 0 52 25 88 21 15-1 57-6 84-46-2-1-50-29-50-87 1-70 61-93 62-94-1-1-10-33-32-65z"/>
<glyph unicode="&#57402;" d="M448 320c0 107-85 192-192 192-107 0-192-85-192-192l0-11c-26-66-62-172-64-222-2-42 100-44 137-44 32-26 74-43 119-43 45 0 87 15 119 43 37 0 137 0 137 44-2 50-38 156-64 222z m-192-277c-83 0-149 66-149 149l0 128c0 41 17 77 42 105 9-32 52-84 254-84 2-6 2-15 2-21l0-128c0-83-66-149-149-149z m0 128c13 0 21 8 21 21l0 21-42 0 0-21c0-13 8-21 21-21z m-64 106c0-11-10-21-21-21-12 0-22 10-22 21 0 12 10 22 22 22 11 0 21-10 21-22z m171 0c0-11-10-21-22-21-11 0-21 10-21 21 0 12 10 22 21 22 12 0 22-10 22-22z m-128-170l42 0c24 0 43 19 43 42l-128 0c0-23 19-42 43-42z"/>
<glyph unicode="&#57403;" d="M448 320c0 107-85 192-192 192-107 0-192-85-192-192l0-11c-26-66-62-172-64-222-2-42 100-44 137-44 32-26 74-43 119-43 45 0 87 15 119 43 37 0 137 0 137 44-2 50-38 156-64 222z m-192-277c-83 0-149 66-149 149l0 128c0 41 17 77 42 105 9-32 52-84 254-84 2-6 2-15 2-21l0-128c0-83-66-149-149-149z m0 128c13 0 21 8 21 21l0 21-42 0 0-21c0-13 8-21 21-21z m-64 106c0-11-10-21-21-21-12 0-22 10-22 21 0 12 10 22 22 22 11 0 21-10 21-22z m171 0c0-11-10-21-22-21-11 0-21 10-21 21 0 12 10 22 21 22 12 0 22-10 22-22z m-86-128l-42 0c-24 0-43-19-43-42 0 12 51 21 64 21 13 0 64-9 64-21 0 23-19 42-43 42z"/>
<glyph unicode="&#57404;" d="M448 320c0 107-85 192-192 192-107 0-192-85-192-192l0-11c-26-66-62-172-64-222-2-42 100-44 137-44 32-26 74-43 119-43 45 0 87 15 119 43 37 0 137 0 137 44-2 50-38 156-64 222z m-192-277c-83 0-149 66-149 149l0 128c0 41 17 77 42 105 9-32 52-84 254-84 2-6 2-15 2-21l0-128c0-83-66-149-149-149z m0 128c13 0 21 8 21 21l0 21-42 0 0-21c0-13 8-21 21-21z m77-24l-22-10c-6-5-17-5-23 0-19 10-43 10-62 0-6-5-17-5-23 0l-22 10c-10 4-23 0-27-8-5-11 0-24 8-28l21-11c11-4 20-6 30-6 11 0 22 2 30 6 7 5 17 5 24 0 19-10 42-10 62 0l21 11c11 4 15 17 8 28-4 8-17 12-25 8z m-141 130c0-11-10-21-21-21-12 0-22 10-22 21 0 12 10 22 22 22 11 0 21-10 21-22z m171 0c0-11-10-21-22-21-11 0-21 10-21 21 0 12 10 22 21 22 12 0 22-10 22-22z"/>
<glyph unicode="&#57405;" d="M448 512l-384 0c-36 0-64-28-64-64l0-405c0-24 19-43 43-43l426 0c24 0 43 19 43 43l0 405c0 36-28 64-64 64z m21-469l-426 0 0 405c0 13 8 21 21 21l384 0c13 0 21-8 21-21z m-85 405l-256 0c-23 0-43-19-43-43l0-42-21 0 0-43 21 0 0-128-21 0 0-43 21 0 0-42c0-24 20-43 43-43l256 0c36 0 64 28 64 64l0 256c0 36-28 64-64 64z m21-320c0-13-8-21-21-21l-256 0 0 42 21 0 0 43-21 0 0 128 21 0 0 43-21 0 0 42 256 0c13 0 21-8 21-21z m-70 100c4 9 6 17 6 28 0 28-19 51-42 60 0 2 0 2 0 4l0 43c0 12-9 21-22 21-12 0-21-9-21-21l0-43c0-2 0-2 0-4-26-9-43-32-43-60 0-11 2-19 7-28l-43-42c-8-9-8-22 0-30 4-5 9-7 15-7 6 0 11 2 15 7l43 42c8-4 17-6 27-6 11 0 20 2 28 6l43-42c4-5 10-7 15-7 4 0 10 2 15 7 8 8 8 21 0 30z m-58 7c-12 0-21 8-21 21 0 13 9 21 21 21 13 0 22-8 22-21 0-13-9-21-22-21z"/>
<glyph unicode="&#57406;" d="M469 341l-217 0-101 139c-8 13-25 15-38 4-8-8-11-21-2-32l79-111-147 0c-24 0-43-19-43-42l0-22c0-17 11-32 26-38l59-181c5-17 22-37 43-37l256 0c21 0 38 20 43 37l59 179c15 6 26 21 26 38l0 22c0 25-19 44-43 44z m-426-42l179 0 15-20c0 0 2 0 2-2l-196 0z m343-229l0-2c0-2-2-2-2-4l-254 0c-2 0-2 2-2 4l-55 167 366 0z m-111 207c4 7 7 15 7 22l187 0 0-22z m-126-175c2-10 13-17 22-17 2 0 4 0 4 0 11 2 19 15 15 26l-21 85c-3 11-15 19-26 15-11-2-19-15-15-25z m188-17c2 0 4 0 4 0 9 0 20 7 22 17l21 86c2 10-4 23-15 25-11 2-23-4-26-15l-21-85c-4-13 2-23 15-28z m-81 0c13 0 21 9 21 22l0 85c0 13-8 21-21 21-13 0-21-8-21-21l0-85c0-13 8-22 21-22z"/>
<glyph unicode="&#57407;" d="M491 341l-22 0 0 64c0 7-4 11-10 11-7 0-11-4-11-11l0-64-26 0c-15 62-72 111-145 124l0 4c0 11-8 20-19 22l-213 21c-9 0-15-2-19-11-5-8-5-15 0-21l49-83c-22-26-32-56-32-88 0-25 6-49 21-70l-34-64c-19-28-30-58-30-90 0-40 45-85 85-85 34 0 43 43 56 92 2 10 4 25 8 36l22 0c19 0 36 9 49 21 4 0 10 0 15 0 102 0 185 66 192 150l21 0 0-64c0-7 4-11 11-11 6 0 10 4 10 11l0 64 22 0c12 0 21 8 21 21 0 13-9 21-21 21z m-329 116c-21-7-40-18-57-30l-22 38z m-64-357c-4-19-11-47-17-57-17 4-38 25-38 42 0 24 8 45 21 64l28 54c10-9 21-17 34-24-13-17-19-47-28-79z m137 92c-54 0-101 21-128 55-15 20-22 39-22 62 0 64 66 118 150 118 83 0 149-54 149-118 0-64-66-117-149-117z m100 160c-24-13-43-26-64-38-4 19-11 36-17 55l-11 24-17-15-85-69c-7-4-7-12-2-19 4-6 12-8 19-4l64 45c4-20 8-41 15-60l8-32 24 19c28 21 55 45 79 71 4 4 4 8 2 14-2 9-11 11-15 9z"/>
<glyph unicode="&#57408;" d="M491 277l-45 0c-4 37-19 71-41 98l37 37c8 8 8 21 0 30-9 8-22 8-30 0l-37-37c-27 22-61 37-98 41l0 45c0 12-8 21-21 21-13 0-21-9-21-21l0-45c-37-4-71-17-98-41l-37 37c-8 8-21 8-30 0-8-9-8-22 0-30l37-37c-22-27-37-61-41-98l-45 0c-12 0-21-8-21-21 0-13 9-21 21-21l45 0c4-37 19-71 41-98l-37-37c-8-8-8-21 0-30 5-4 9-6 15-6 7 0 11 2 15 6l37 37c27-22 61-37 98-41l0-45c0-12 8-21 21-21 13 0 21 9 21 21l0 45c37 4 71 19 98 41l37-37c4-4 10-6 15-6 4 0 10 2 15 6 8 9 8 22 0 30l-37 37c22 27 37 61 41 98l45 0c12 0 21 8 21 21 0 13-9 21-21 21z m-88 0l-96 0 68 69c15-20 24-43 28-69z m-57 98l-69-68 0 96c26-4 49-13 69-28z m-111 28l0-96-69 68c20 15 43 24 69 28z m-98-57l68-69-96 0c4 26 13 49 28 69z m-28-111l96 0-68-69c-15 20-24 43-28 69z m57-98l69 68 0-96c-26 4-49 13-69 28z m111-28l0 96 69-68c-20-15-43-24-69-28z m98 57l-68 69 96 0c-4-26-13-49-28-69z"/>
<glyph unicode="&#57409;" d="M107 256c0-66 44-124 104-143-6-30-21-70-40-70l-22 0c-12 0-21-9-21-22 0-12 9-21 21-21l214 0c12 0 21 9 21 21 0 13-9 22-21 22l-22 0c-19 0-34 40-40 70 64 19 104 81 104 164l0 22c0 4 0 6 0 10 0 37-15 86-40 126-30 49-68 77-109 77-41 0-79-28-109-77-25-40-40-89-40-126 0-4 0-6 0-10z m175-213l-49 0c12 21 19 47 21 64 0 0 2 0 2 0 0 0 2 0 2 0 4-17 11-43 24-64z m-26 106c-60 0-107 47-107 107l212 0c-5-53-35-107-105-107z m-107 160c0 30 13 71 34 105 22 34 50 55 73 55 23 0 51-21 73-55 21-34 34-75 34-105 0-4 0-6 0-10l-214 0c0 4 0 6 0 10z"/>
<glyph unicode="&#57410;" d="M107 256c0-66 44-124 104-143-6-30-21-70-40-70l-22 0c-12 0-21-9-21-22 0-12 9-21 21-21l214 0c12 0 21 9 21 21 0 13-9 22-21 22l-22 0c-19 0-34 40-40 70 64 19 104 81 104 164l0 22c0 4 0 4 0 8 0 17-4 34-8 56l0 2c0 0 0 2 0 4l-22 34-49-32 39 115c4 11-2 24-13 28-11 4-23-2-28-13l-36-106-32 15-64-43-51 34-22-32c0 0 0-2 0-2-8-21-12-41-12-58 0-4 0-6 0-10z m175-213l-49 0c12 21 19 47 21 64 0 0 2 0 2 0 0 0 2 0 2 0 4-17 11-43 24-64z m-26 106c-60 0-107 47-107 107l212 0c-5-53-35-107-105-107z m-107 160c0 9 2 20 5 32l38-25 64 42 64-42 38 25c3-12 5-23 5-32 0-4 0-6 0-10l-214 0c0 4 0 6 0 10z"/>
<glyph unicode="&#57411;" d="M448 427l-311 0-3 12c-6 30-32 52-64 52l-49 0c-12 0-21-9-21-22 0-12 9-21 21-21l49 0c11 0 20-6 22-17l49-256c8-28 34-47 62-47l202 0c13 0 22 9 22 21 0 13-9 22-22 22l-202 0c-9 0-17 6-20 12l-2 9 214 0c27 0 51 17 59 43l58 123 0 5c0 36-28 64-64 64z m-32-175l0-2c-2-9-11-15-21-15l-222 0-28 149 303 0c13 0 19-6 21-17z m-160-188c0-24-19-43-43-43-23 0-42 19-42 43 0 24 19 43 42 43 24 0 43-19 43-43z m171 0c0-24-19-43-43-43-24 0-43 19-43 43 0 24 19 43 43 43 24 0 43-19 43-43z"/>
<glyph unicode="&#57412;" d="M256 512c-141 0-256-115-256-256 0-141 115-256 256-256 141 0 256 115 256 256 0 141-115 256-256 256z m0-469c-117 0-213 96-213 213 0 117 96 213 213 213 117 0 213-96 213-213 0-117-96-213-213-213z m0 405c-107 0-192-85-192-192 0-107 85-192 192-192 107 0 192 85 192 192 0 107-85 192-192 192z m0-341c-83 0-149 66-149 149 0 83 66 149 149 149 83 0 149-66 149-149 0-83-66-149-149-149z m43 106l-22 0 0 128-42 0-30-23c-11-7-15-19-11-28 4-11 17-15 28-8l13 6 0-75-22 0c-12 0-21-8-21-21 0-13 9-21 21-21l86 0c12 0 21 8 21 21 0 13-9 21-21 21z"/>
<glyph unicode="&#57413;" d="M341 384c-8 0-15 0-23-2-30 53-85 87-147 87-94 0-171-76-171-170 0-94 77-171 171-171 8 0 15 0 23 2 30-53 85-87 147-87 94 0 171 76 171 170 0 94-77 171-171 171z m-143-209c-8-2-17-4-27-4-71 0-128 57-128 128 0 70 51 128 123 128 49 0 111-30 111-77 22-15 15-32 17-51l3-2c0-39-18-75-50-99-14-12-29-19-49-23z m141 102c2 0 2 0 0 0 36 0 66-27 66-64 0-36-27-64-64-64-21 0-40 11-51 28 28 26 45 62 49 100z m2-192c-42 0-81 22-104 56 6 2 13 6 19 8 19-27 51-44 85-44 60 0 107 46 107 106 0 60-49 107-109 107 0 6-2 15-4 21 2 0 4 0 6 0 71 0 128-57 128-128 0-70-57-126-128-126z m-64 252c0 0-4 0-4 0 0 0-2 0-2 0-17 43-56 68-100 68-60 0-107-47-107-106 0-60 47-107 107-107 8 0 17 0 25 2 0 0 0-2 0-2 47 21 83 55 83 105 3 14-2 27-2 40z m-89-100c-5-2-11-2-17-2-37 0-64 27-64 64 0 36 27 64 64 64 25 0 51-15 62-41l2 0c0-8 2-15 2-23 0-30-22-56-49-62z"/>
<glyph unicode="&#57414;" d="M21 107l0-43 214 0 0 43c0 51-37 94-86 104l0 4c37 9 64 43 64 84l0 42c0 47-38 86-85 86-47 0-85-39-85-86l0-42c0-41 27-73 64-84l0-4c-49-10-86-53-86-104z m171 0l-128 0c0 36 28 64 64 64 36 0 64-28 64-64z m-107 192l0 42c0 24 20 43 43 43 23 0 43-19 43-43l0-42c0-24-20-43-43-43-23 0-43 19-43 43z m192-192l0-43 214 0 0 43c0 51-37 94-86 104l0 4c37 9 64 43 64 84l0 42c0 47-38 86-85 86-47 0-85-39-85-86l0-42c0-41 27-73 64-84l0-4c-49-10-86-53-86-104z m171 0l-128 0c0 36 28 64 64 64 36 0 64-28 64-64z m-107 192l0 42c0 24 20 43 43 43 23 0 43-19 43-43l0-42c0-24-20-43-43-43-23 0-43 19-43 43z"/>
<glyph unicode="&#57415;" d="M448 448l-384 0c-36 0-64-28-64-64l0-256c0-36 28-64 64-64l384 0c36 0 64 28 64 64l0 256c0 36-28 64-64 64z m21-320c0-13-8-21-21-21l-384 0c-13 0-21 8-21 21l0 21 426 0z m0 64l-426 0 0 21 426 0z m0 64l-426 0 0 128c0 13 8 21 21 21l384 0c13 0 21-8 21-21z m-64 107l-85 0c-13 0-21-9-21-22 0-12 8-21 21-21l85 0c13 0 22 9 22 21 0 13-9 22-22 22z m-128-22c0-11-9-21-21-21-12 0-21 10-21 21 0 12 9 22 21 22 12 0 21-10 21-22z"/>
<glyph unicode="&#57416;" d="M64 21l384 0c23 0 43 20 43 43l0 427-22 0c-47 0-85-39-85-86 0-38 23-68 58-81l-94-79-71 122c24 8 43 32 43 60 0 36-28 64-64 64-36 0-64-28-64-64 0-28 17-52 43-60l-69-122-96 79c35 13 58 43 58 81 0 47-38 86-85 86l-22 0 0-427c0-23 20-43 43-43z m363 384c0 15 8 30 21 37l0-75c-13 8-21 23-21 38z m-171 43c13 0 21-9 21-21 0-11-8-22-21-22-11 0-21 9-21 22 0 12 8 21 21 21z m-192-4c13-7 21-22 21-37 0-14-8-32-21-38z m0-169l113-94 79 139 79-139 113 94 0-147-384 0z m0-190l384 0 0-21-384 0z"/>
<glyph unicode="&#57417;" d="M491 235l0 27c12 7 21 22 21 37 0 17-9 30-23 38-7 51-52 90-105 90-53 0-98-39-105-90-14-8-23-21-23-38 0-15 9-30 21-37l0-27c0-24 20-43 43-43l43 0c-60 0-107-47-107-107 0 60-47 107-107 107l11 0 43 64 32 0 0 6c12 7 21 22 21 37 0 17-9 30-23 38-7 51-52 90-105 90-53 0-98-39-105-90-14-8-23-21-23-38 0-24 19-43 43-43l10 0 43-64 11 0c-60 0-107-47-107-107l0-42 512 0 0 42c0 60-47 107-107 107l43 0c23 0 43 19 43 43z m-414 64l-11 21 124 0-11-21z m51 85c6 0 11 0 15-2-11-4-36-17-36-41l-39 0c9 26 32 43 60 43z m-38-107l17 0c0 0 6-34 32-40l0-2-22 0z m59-128c9 0 15-2 22-4l0-17-86 0 0 17c7 2 13 4 22 4z m-106-64c0 20 8 37 21 47l0-47z m149 0l0 47c13-10 21-27 21-47z m107 0c0 20 8 37 21 47l0-47z m170 0l-21 0 0 47c13-10 21-27 21-47z m-42 60l0-17-86 0 0 17c7 2 13 4 22 4l42 0c9 0 15-2 22-4z m0 154l21 0 0-22-21 0z m21 21l-21 0 0 47c12-11 21-28 21-47z m-107 47l0-47-21 0c0 19 9 36 21 47z m-21-68l21 0 0-22-21 0z m0-64l0 21 21 0 0-21z m43 0l0 145c6 2 12 4 21 4 9 0 15-2 21-4l0-145z m64 21l21 0 0-21-21 0z"/>
<glyph unicode="&#57418;" d="M469 427l-426 0c-24 0-43-20-43-43l0-256c0-23 19-43 43-43l426 0c24 0 43 20 43 43l0 256c0 23-19 43-43 43z m-426-43l42 0c0-23-19-43-42-43z m0-256l0 43c23 0 42-20 42-43z m234 9l0 76c0 13-8 22-21 22-13 0-21-9-21-22l0-76c-13 10-22 32-22 55 0 34 20 64 43 64 23 0 43-30 43-64 0-23-9-43-22-55z m192-9l-42 0c0 23 19 43 42 43z m0 85c-47 0-85-38-85-85l-60 0c11 17 17 41 17 64 0 60-38 107-85 107-47 0-85-47-85-107 0-23 6-47 17-64l-60 0c0 47-38 85-85 85l0 86c47 0 85 38 85 85l256 0c0-47 38-85 85-85z m0 128c-23 0-42 20-42 43l42 0z m-128 22l-170 0c-13 0-22-9-22-22 0-12 9-21 22-21l170 0c13 0 22 9 22 21 0 13-9 22-22 22z"/>
<glyph unicode="&#57419;" d="M491 512l-470 0c-12 0-21-9-21-21l0-256c0-13 9-22 21-22l470 0c12 0 21 9 21 22l0 256c0 12-9 21-21 21z m-448-43l21 0c0-12-9-21-21-21z m0-213l0 21c12 0 21-8 21-21z m138 0l-74 0c0 36-28 64-64 64l0 85c36 0 64 28 64 64l74 0c-19-27-32-64-32-106 0-43 13-79 32-107z m75 0c-34 0-64 49-64 107 0 57 30 106 64 106 34 0 64-49 64-106 0-58-28-107-64-107z m213 0l-21 0c0 13 9 21 21 21z m0 64c-36 0-64-28-64-64l-72 0c19 28 32 64 32 107 0 42-13 79-32 106l72 0c0-36 28-64 64-64z m0 128c-12 0-21 9-21 21l21 0z m0-299l-119 0c11 15 13 30 13 43l-43 0c0-2 0-43-64-43-60 0-64 37-64 43l-43 0c0-13 5-28 13-43l-119 0 0 43-43 0 0-43c0-23 19-42 43-42l426 0c24 0 43 19 43 42l0 43-43 0z m0-106l-119 0c11 15 13 30 13 42l-43 0c0-2 0-42-64-42-60 0-64 36-64 42l-43 0c0-12 5-27 13-42l-119 0 0 42-43 0 0-42c0-24 19-43 43-43l426 0c24 0 43 19 43 43l0 42-43 0z"/>
<glyph unicode="&#57420;" d="M486 499c-17 13-36 15-55 11l-213-62c-28-6-47-32-47-62l0-235c-17 13-41 20-64 20-60 0-107-39-107-86 0-47 47-85 107-85 59 0 106 43 106 90 0 4 0-5-2 17l2 0 0 192c0 8 7 17 15 21l214 62c6 2 12 0 19-4 6-5 8-11 8-17l0-143c-17 10-40 17-64 17-59 0-106-39-106-86 0-47 47-85 106-85 60 0 107 38 107 85 0 7-2 15-4 22l4 0 0 277c0 19-9 38-26 51z m-379-456c-34 0-64 19-64 42 0 24 30 43 64 43 34 0 64-19 64-43 0-23-30-42-64-42z m298 64c-34 0-64 19-64 42 0 24 30 43 64 43 34 0 64-19 64-43 0-23-30-42-64-42z m26 313l-213-62c-3 0-3 0-5-2l0 30c0 9 7 17 15 21l214 62c6 0 15 0 19-4 6-4 8-11 8-17l0-28c-12 5-25 5-38 0z"/>
<glyph unicode="&#57421;" d="M425 275c-9 86-82 152-169 152-87 0-160-66-169-152-51-8-87-47-87-94 0-53 47-96 107-96l21 0 0 171c0 70 58 128 128 128 70 0 128-58 128-128l0-171 21 0c60 0 107 43 107 96 0 47-36 86-87 94z m-340-145c-25 7-42 28-42 51 0 24 17 43 42 52z m342 0l0 100c25-6 42-27 42-51 0-23-17-40-42-49z"/>
<glyph unicode="&#57422;" d="M425 361c-9 85-82 151-169 151-87 0-160-66-169-151-51-9-87-47-87-94 0-54 47-96 107-96l21 0 0 170c0 71 58 128 128 128 70 0 128-57 128-128l0-149c0-77-43-98-68-105-11 24-32 41-60 41-36 0-64-28-64-64 0-36 28-64 64-64 28 0 53 19 60 45 19 4 47 13 70 36 24 24 36 53 39 92 49 8 85 47 85 94 2 47-34 85-85 94z m-340-146c-25 7-42 28-42 52 0 23 17 42 42 51z m171-172c-13 0-21 8-21 21 0 13 8 21 21 21 13 0 21-8 21-21 0-13-8-21-21-21z m171 172l0 103c25-7 42-28 42-51 0-24-17-43-42-52z"/>
<glyph unicode="&#57423;" d="M405 224c0 70-57 203-138 203-81 0-139-133-139-203 0-77 62-139 139-139 76 0 138 62 138 139z m-234 0c0 58 49 160 96 160 47 0 96-102 96-160 0-53-43-96-96-96-54 0-96 43-96 96z"/>
<glyph unicode="&#57424;" d="M439 499l-64-64c-10-10-14-28-10-40l-15-15c-39 30-85 47-137 47-117 0-213-96-213-214 0-117 96-213 213-213 118 0 214 96 214 213 0 52-17 98-49 135l15 15c6 0 8 0 12 0 11 0 22 4 30 12l64 64c17 18 17 43 0 60-17 17-42 17-60 0z m-226-456c-94 0-170 76-170 170 0 94 76 171 170 171 94 0 171-77 171-171 0-94-77-170-171-170z m0 234c-36 0-64-27-64-64 0-36 28-64 64-64 37 0 64 28 64 64 0 37-27 64-64 64z m0-85c-12 0-21 9-21 21 0 13 9 22 21 22 13 0 22-9 22-22 0-12-9-21-22-21z m0 171c-36 2-111-17-128-103-6-27-6-49 0-72 11-47 49-98 105-103 4 0 8 0 15 0 4 0 10 0 15 0 4 0 10 0 15 0 44 0 81 20 102 54 19 27 24 81-2 111-9 10-13 19-17 34-9 36-45 79-105 79z m90-203c-11-15-30-32-68-32-5 0-11 0-15 0-9 0-19 0-26 0-34 2-60 38-66 68-4 19-4 34 0 56 13 64 66 68 81 68 2 0 2 0 4 0 41 0 60-30 64-49 7-21 13-34 26-51 11-11 11-43 0-60z"/>
<glyph unicode="&#57425;" d="M469 427l-426 0c-24 0-43-20-43-43l0-256c0-23 19-43 43-43l426 0c24 0 43 20 43 43l0 256c0 23-19 43-43 43z m-320-299l-106 0 0 256 106 0z m128 0l-21 0 0 75c0 6 4 10 11 10 6 0 10-4 10-10z m128 0l-21 0 0 75c0 6 4 10 11 10 6 0 10-4 10-10z m64 0l-21 0 0 75c0 30-23 53-53 53-30 0-54-23-54-53l0-75-21 0 0 75c0 30-23 53-53 53-30 0-54-23-54-53l0-75-21 0 0 128 277 0z m0 171l-277 0 0 85 277 0z m-384-150c13 0 22 9 22 22l0 42c0 13-9 22-22 22-12 0-21-9-21-22l0-42c0-13 9-22 21-22z m278 171l64 0c12 0 21 9 21 21 0 13-9 22-21 22l-64 0c-13 0-22-9-22-22 0-12 9-21 22-21z"/>
<glyph unicode="&#57426;" d="M90 361c8-9 19-9 27-3 17 13 32 24 54 26 6-17 25-32 42-38l0-7c-49-10-85-53-85-104l0-188c0-26 21-47 47-47l119 0c26 0 47 21 47 47l0 188c0 51-36 94-85 104l0 7c9 2 17 8 23 15l118-58c2-4 4-4 8-4 5 0 9 0 11 2 6 4 11 13 11 19l0 171c0 6-5 15-11 19-6 4-15 4-21 0l-118-58c-10 11-25 17-42 17-28 0-52-19-60-44-30-3-60-13-83-30-11-9-11-24-2-34z m209 53l85 43 0-103-85 43c0 2 0 4 0 8 0 5 0 5 0 9z m0-367c0-2-2-4-5-4l-119 0c-2 0-4 2-4 4l0 166 128 0z m-5 209l-119 0c8 26 32 43 60 43 27 0 51-17 59-43z m-59 171c12 0 21-9 21-22 0-12-9-21-21-21-13 0-22 9-22 21 0 13 9 22 22 22z"/>
<glyph unicode="&#57427;" d="M107 196c0-77 53-143 130-153 92-11 168 59 168 147l0 64c0 13-12 43-42 43l0-107c0-62-54-113-118-107-55 9-96 58-96 113l0 124c-23 0-42-19-42-43z m192 145l0-85 42 0 0 85c0 13-8 22-21 22-13 0-21-9-21-22z m-64 107l0-192 42 0 0 192c0 13-8 21-21 21-13 0-21-8-21-21z m-64-107l0-85 42 0 0 85c0 13-8 22-21 22-13 0-21-9-21-22z"/>
<glyph unicode="&#57428;" d="M21 0l107 0c13 0 21 9 21 21 0 13-8 22-21 22l-55 0 134 134c8 9 8 21 0 30-9 8-21 8-30 0l-134-134 0 55c0 13-9 21-22 21-12 0-21-8-21-21l0-107c0-12 9-21 21-21z m470 149c-13 0-22-8-22-21l0-55-134 134c-9 8-21 8-30 0-8-9-8-21 0-30l134-134-55 0c-13 0-21-9-21-22 0-12 8-21 21-21l107 0c12 0 21 9 21 21l0 107c0 13-9 21-21 21z m0 363l-107 0c-13 0-21-9-21-21 0-13 8-22 21-22l55 0-134-134c-8-9-8-21 0-30 4-4 9-6 15-6 6 0 11 2 15 6l134 134 0-55c0-13 9-21 22-21 12 0 21 8 21 21l0 107c0 12-9 21-21 21z m-470-149c13 0 22 8 22 21l0 55 134-134c4-4 9-6 15-6 6 0 11 2 15 6 8 9 8 21 0 30l-134 134 55 0c13 0 21 9 21 22 0 12-8 21-21 21l-107 0c-12 0-21-9-21-21l0-107c0-13 9-21 21-21z"/>
<glyph unicode="&#57429;" d="M448 397l0 8c0 13-9 22-21 22l-43 0c-13 0-21-9-21-22l0-8c-17-9-32-19-43-34l-128 0c-11 15-26 25-43 34l0 8c0 13-8 22-21 22l-43 0c-12 0-21-9-21-22l0-8c-38-17-64-56-64-98 0-22 6-43 19-60l-19-105c0-2 0-6 0-8 0-34 28-62 62-62l2 0c19 0 38 9 51 26l47 70c9-6 19-11 30-11 15 0 30 9 36 22l56 0c6-13 21-22 36-22 11 0 21 5 30 13l47-72c13-17 30-26 51-26l4 0c34 0 62 28 62 62 0 2 0 6 0 8l-17 105c9 17 15 38 15 60 0 42-26 81-64 98z m-43-34c37 0 64-28 64-64 0-17-8-34-19-47l-2 0c-11-11-26-17-43-17-36 0-64 27-64 64 0 36 28 64 64 64z m-298 0c36 0 64-28 64-64 0-37-28-64-64-64-17 0-32 6-43 17l-2 0c-11 13-19 30-19 47 0 36 27 64 64 64z m-28-248c-2-6-9-8-15-8l-2 0c-11 0-19 8-19 19 0 0 0 2 0 2l12 79c15-11 32-15 52-15 8 0 19 2 27 4z m205 98l-56 0c-6 13-21 22-36 22 13 17 21 40 21 64 0 6 0 15-2 21l90 0c-2-6-2-15-2-21 0-24 8-47 21-64-15 0-30-9-36-22z m166-106l-2 0c-6 0-11 2-15 6l-53 81c8-2 17-4 27-4 20 0 37 4 52 13l10-75c0 0 0-2 0-2 0-11-8-19-19-19z m-66 170c0-12 9-21 21-21 13 0 22 9 22 21 12 0 21 9 21 22 0 12-9 21-21 21 0 13-9 21-22 21-12 0-21-8-21-21-13 0-21-9-21-21 0-13 8-22 21-22z m-256 64c0-11-10-21-21-21-12 0-22 10-22 21 0 12 10 22 22 22 11 0 21-10 21-22z m43-42c0-12-10-22-22-22-11 0-21 10-21 22 0 11 10 21 21 21 12 0 22-10 22-21z m-86 0c0-12-9-22-21-22-12 0-21 10-21 22 0 11 9 21 21 21 12 0 21-10 21-21z m43-43c0-12-10-21-21-21-12 0-22 9-22 21 0 12 10 21 22 21 11 0 21-9 21-21z m107 43l42 0 0-43-42 0z"/>
<glyph unicode="&#57430;" d="M448 320c0 107-85 192-192 192-107 0-192-85-192-192l0-11c-26-66-62-172-64-222-2-42 100-44 137-44 32-26 74-43 119-43 45 0 87 15 119 43 37 0 137 0 137 44-2 50-38 156-64 222z m-192-277c-83 0-149 66-149 149l0 128c0 41 17 77 42 105 9-32 52-84 254-84 2-6 2-15 2-21l0-128c0-83-66-149-149-149z m0 128c13 0 21 8 21 21l0 21-42 0 0-21c0-13 8-21 21-21z m0-64c23 0 43 19 43 42l-86 0c0-23 20-42 43-42z m-64 170c0-11-10-21-21-21-12 0-22 10-22 21 0 12 10 22 22 22 11 0 21-10 21-22z m171 0c0-11-10-21-22-21-11 0-21 10-21 21 0 12 10 22 21 22 12 0 22-10 22-22z"/>
<glyph unicode="&#57431;" d="M448 320c0 38-13 77-32 107l32 0c13 0 21 8 21 21 0 13-8 21-21 21l-73 0c-32 26-74 43-119 43-45 0-87-17-119-43l-73 0c-13 0-21-8-21-21 0-13 8-21 21-21l32 0c-19-30-32-69-32-107l0-11c-26-66-62-172-64-222-2-42 100-44 137-44 32-26 74-43 119-43 45 0 87 15 119 43 37 0 137 0 137 44-2 50-38 156-64 222z m-192-277c-83 0-149 66-149 149l0 128c0 41 17 77 42 105 9-32 52-84 254-84 2-6 2-15 2-21l0-128c0-83-66-149-149-149z m-21 170c0-12 8-21 21-21 13 0 21 9 21 21l0 22-42 0z m21 86l-43 0c0-11-4-22-21-22-11 0-15 5-15 5-6 6-6 12-6 17l-43 0c0-2 0-28 17-47 9-7 24-17 47-17 23 0 38 8 45 17 19 19 19 45 19 47z m64-22c-11 0-15 5-15 5-6 6-6 12-6 17l-43 0c0-2 0-28 17-47 9-9 21-17 47-17 23 0 38 8 45 17 19 19 19 45 19 47l-43 0c0-11-4-22-21-22z m-43-149c0-12-9-21-21-21-12 0-21 9-21 21 0 12 9 21 21 21 12 0 21-9 21-21z"/>
<glyph unicode="&#57432;" d="M448 320c0 107-85 192-192 192-107 0-192-85-192-192l0-11c-26-66-62-172-64-222-2-42 100-44 137-44 32-26 74-43 119-43 45 0 87 15 119 43 37 0 137 0 137 44-2 50-38 156-64 222z m-192-277c-83 0-149 66-149 149l0 128c0 41 17 77 42 105 9-32 52-84 254-84 2-6 2-15 2-21l0-128c0-83-66-149-149-149z m0 128c13 0 21 8 21 21l0 21-42 0 0-21c0-13 8-21 21-21z m21-22l-42 0c-24 0-43-19-43-42 0 12 51 21 64 21 13 0 64-9 64-21 0 23-19 42-43 42z m-64 107l0 43-85 0 43-22 0-21c0-13 8-21 21-21 13 0 21 8 21 21z m86 43l0-43c0-13 8-21 21-21 13 0 21 8 21 21l0 21 43 22z"/>
</font>
</defs>
</svg>
